<?xml version="1.0" standalone="no"?>
<!DOCTYPE svg PUBLIC "-//W3C//DTD SVG 1.1//EN" "http://www.w3.org/Graphics/SVG/1.1/DTD/svg11.dtd" >
<svg xmlns="http://www.w3.org/2000/svg">
<metadata>
Created by FontPrep 20130207 at Fri Nov 21 11:23:57 2014
 By Med Maps 2
Copyright \(c\) 2010 by Ryoichi Tsunekawa. All rights reserved.
</metadata>
<defs>
<font id="3166c81ac2dcbbc5ab3c7185cfcd2ecc" horiz-adv-x='1024' >
  <font-face 
    font-family="BebasNeueRegular"
    font-weight="400"
    font-stretch="normal"
    units-per-em="2048"
    panose-1="0 0 5 0 0 0 0 0 0 0"
    ascent="1536"
    descent="-512"
    x-height="1434"
    cap-height="1434"
    bbox="-162 -367 1702 1817"
    underline-thickness="102"
    underline-position="-123"
    unicode-range="U+000D-F6C3"
  />
<missing-glyph horiz-adv-x="1122" 
d="M475 733l-225 -575h112l189 483l188 -483h127l-225 575l211 541h-113l-176 -447l-174 447h-125zM102 1434h918v-1434h-918v1434z" />
    <glyph glyph-name=".notdef" horiz-adv-x="1122" 
d="M475 733l-225 -575h112l189 483l188 -483h127l-225 575l211 541h-113l-176 -447l-174 447h-125zM102 1434h918v-1434h-918v1434z" />
    <glyph glyph-name=".null" horiz-adv-x="0" 
 />
    <glyph glyph-name="nonmarkingreturn" unicode="&#xd;" horiz-adv-x="317" 
 />
    <glyph glyph-name="NULL" horiz-adv-x="0" 
 />
    <glyph glyph-name="NULL" horiz-adv-x="0" 
 />
    <glyph glyph-name="space" unicode=" " horiz-adv-x="317" 
 />
    <glyph glyph-name="exclam" unicode="!" horiz-adv-x="323" 
d="M238 199v-199h-154v199h154zM82 1434h160v-674l-21 -443h-119l-20 443v674z" />
    <glyph glyph-name="quotedbl" unicode="&#x22;" horiz-adv-x="542" 
d="M461 1434l-23 -387h-110l-21 387h154zM236 1434l-23 -387h-111l-20 387h154z" />
    <glyph glyph-name="numbersign" unicode="#" horiz-adv-x="843" 
d="M539 967h-187l-45 -420h189zM670 967l-43 -420h114l-12 -115h-115l-45 -432h-131l45 432h-186l-47 -432h-131l47 432h-119l12 115h117l45 420h-121l13 114h118l37 353h131l-37 -353h189l37 353h131l-37 -353h115l-13 -114h-114z" />
    <glyph glyph-name="dollar" unicode="$" 
d="M391 145q168 0 168 203q0 80 -36 137.5t-89 104.5t-203.5 154.5t-150.5 320.5q0 323 252 362v115h131v-115q131 -18 192.5 -112t61.5 -240v-39h-150v49q0 205 -164.5 205t-164.5 -205q0 -80 35.5 -137t89 -104t205 -153.5t151.5 -321.5q0 -328 -256 -365v-108h-131v108
q-135 18 -196.5 112.5t-61.5 241.5v88h149v-98q0 -203 168 -203z" />
    <glyph glyph-name="percent" unicode="%" horiz-adv-x="1261" 
d="M1085 682q0 129 -102 129t-102 -129v-465q0 -131 102 -131t102 131v465zM984 905q105 0 154.5 -62.5t49.5 -166.5v-451q0 -104 -49 -167.5t-155 -63.5t-156 63.5t-50 167.5v451q0 104 50.5 166.5t155.5 62.5zM381 1217q-1 131 -103 131t-102 -131v-467q0 -129 102 -129
t103 129v467zM956 1434l-565 -1434h-96l565 1434h96zM278.5 1442q104.5 0 154.5 -63.5t50 -168.5v-452q0 -104 -50 -168t-154.5 -64t-154.5 63.5t-50 168.5v452q0 104 50 168t154.5 64z" />
    <glyph glyph-name="ampersand" unicode="&#x26;" horiz-adv-x="835" 
d="M242 328q0 -197 166 -197q70 0 113.5 40t47.5 124v381h-149q-178 -6 -178 -217v-131zM84 1079q0 355 338 355h231v-146h-227q-184 0 -184 -203v-71q0 -92 44 -141.5t122 -53.5h161v160h158v-160h70v-143h-70v-494q0 -53 4 -97t27 -85h-162q-24 54 -27 125
q-62 -139 -225 -139q-135 0 -197.5 88t-62.5 241v140q0 233 170 299q-170 60 -170 293v32z" />
    <glyph glyph-name="quotesingle" unicode="'" horiz-adv-x="309" 
d="M231 1434l-22 -387h-111l-20 387h153z" />
    <glyph glyph-name="parenleft" unicode="(" horiz-adv-x="493" 
d="M397 1303q-84 0 -115.5 -45.5t-31.5 -139.5v-803q0 -94 30.5 -139t116.5 -45h47v-131h-57q-164 0 -229.5 77t-65.5 238v803q0 162 65.5 239t229.5 77h57v-131h-47z" />
    <glyph glyph-name="parenright" unicode=")" horiz-adv-x="493" 
d="M106 1434q164 0 229.5 -77t65.5 -239v-803q0 -162 -65.5 -238.5t-229.5 -76.5h-57v131h47q86 0 117 45t31 139v803q0 94 -32 139.5t-116 45.5h-47v131h57z" />
    <glyph glyph-name="asterisk" unicode="*" horiz-adv-x="808" 
d="M453 1044l217 -239l-105 -78l-162 285l-159 -285l-105 78l215 239l-317 66l39 125l299 -131l-37 323h131l-35 -323l299 129l39 -125z" />
    <glyph glyph-name="plus" unicode="+" horiz-adv-x="802" 
d="M459 659v-288h-115v288h-283v115h283v285h115v-285h282v-115h-282z" />
    <glyph glyph-name="comma" unicode="," horiz-adv-x="327" 
d="M92 0v199h154v-185l-80 -194h-66l52 180h-60z" />
    <glyph glyph-name="hyphen" unicode="-" horiz-adv-x="542" 
d="M76 788h391v-143h-391v143z" />
    <glyph glyph-name="period" unicode="." horiz-adv-x="317" 
d="M236 199v-199h-154v199h154z" />
    <glyph glyph-name="slash" unicode="/" horiz-adv-x="770" 
d="M737 1434l-565 -1434h-139l565 1434h139z" />
    <glyph glyph-name="zero" unicode="0" horiz-adv-x="796" 
d="M567 1096q0 209 -170 209q-86 0 -128 -55.5t-42 -153.5v-758q0 -207 170 -207t170 207v758zM70 1087q0 166 80.5 263.5t246.5 97.5t248 -97.5t82 -263.5v-739q0 -166 -82 -264t-248 -98t-246.5 98t-80.5 264v739z" />
    <glyph glyph-name="one" unicode="1" horiz-adv-x="692" 
d="M532 1434v-1434h-157v1174q-89 -54 -199 -62v131q151 5 191.5 79.5t54.5 111.5h110z" />
    <glyph glyph-name="two" unicode="2" 
d="M399 1305q-168 0 -168 -211v-127h-149v116q0 166 77.5 265.5t244.5 99.5t245 -98.5t78 -264.5q0 -243 -197.5 -450t-243.5 -296t-46 -171v-23h471v-145h-629v123q0 194 90 315t152.5 185.5t152.5 176t90 279.5q0 111 -39 168.5t-129 57.5z" />
    <glyph glyph-name="three" unicode="3" 
d="M391 1305q-168 0 -168 -209v-74h-149v65q0 166 77.5 263.5t243.5 97.5t245 -97.5t79 -263.5v-36q0 -230 -174 -295q174 -66 174 -297v-111q0 -166 -79 -264t-244 -98t-243.5 99t-78.5 263v98h149v-108q0 -207 168 -207q88 0 128 55.5t40 165.5v111q0 207 -180 213h-86
v143h94q80 4 126 53.5t46 143.5v65q0 111 -40 167.5t-128 56.5z" />
    <glyph glyph-name="four" unicode="4" horiz-adv-x="819" 
d="M508 434v701l-315 -701h315zM664 289v-289h-156v289h-463v145l444 1000h175v-1000h114v-145h-114z" />
    <glyph glyph-name="five" unicode="5" 
d="M393 823q-140 0 -162 -153v-33h-149l39 797h565v-144h-422l-22 -440q70 119 211 119t204.5 -93.5t63.5 -246.5v-281q0 -164 -80 -263t-244 -99t-242.5 99t-78.5 263v96h149v-106q0 -207 168 -207t168 207v278q0 207 -168 207z" />
    <glyph glyph-name="six" unicode="6" horiz-adv-x="796" 
d="M571 553q0 207 -170 207t-170 -207v-215q0 -207 170 -207t170 207v215zM463 905q139 0 202.5 -92t63.5 -248v-217q0 -166 -81 -264t-246.5 -98t-247.5 98t-82 264v731q0 172 78.5 270.5t247.5 98.5t248 -96.5t79 -261.5v-27h-150v37q0 205 -169 205q-92 0 -133.5 -57.5
t-41.5 -174.5v-321q60 153 232 153z" />
    <glyph glyph-name="seven" unicode="7" 
d="M72 1290v144h649v-140l-369 -1294h-159l366 1290h-487z" />
    <glyph glyph-name="eight" unicode="8" horiz-adv-x="802" 
d="M221 348q0 -217 178.5 -217t182.5 217v121q0 207 -180.5 207t-180.5 -207v-121zM582 1090q0 215 -180.5 215t-180.5 -215v-70q0 -201 180.5 -201t180.5 201v70zM63 1049v45q0 166 86.5 260t252 94t251.5 -94t86 -260v-45q0 -235 -164 -295q164 -64 164 -303v-107
q0 -166 -85 -262t-253 -96t-253 96t-85 262v107q0 111 37 188.5t129 114.5q-166 66 -166 295z" />
    <glyph glyph-name="nine" unicode="9" horiz-adv-x="796" 
d="M565 1096q0 207 -170 207t-170 -207v-215q0 -207 170 -207t170 207v215zM219 336q0 -205 170 -205q92 0 134 57.5t42 171.5v322q-59 -152 -231 -152q-139 0 -202.5 91.5t-63.5 246.5v219q0 166 80.5 263.5t246.5 97.5t248 -97.5t82 -263.5v-731q0 -170 -80 -270
t-249 -100t-247.5 97t-78.5 263v27h149v-37z" />
    <glyph glyph-name="colon" unicode=":" horiz-adv-x="317" 
d="M236 199v-199h-154v199h154zM236 979v-199h-154v199h154z" />
    <glyph glyph-name="semicolon" unicode=";" horiz-adv-x="327" 
d="M92 0v199h154v-185l-80 -194h-66l52 180h-60zM246 979v-199h-154v199h154z" />
    <glyph glyph-name="less" unicode="&#x3c;" horiz-adv-x="784" 
d="M702 399l-634 260v115l634 260v-116l-485 -201l485 -201v-117z" />
    <glyph glyph-name="equal" unicode="=" horiz-adv-x="716" 
d="M641 643v-115h-565v115h565zM641 934v-115h-565v115h565z" />
    <glyph glyph-name="greater" unicode="&#x3e;" horiz-adv-x="784" 
d="M82 516l485 201l-485 201v116l635 -260v-115l-635 -260v117z" />
    <glyph glyph-name="question" unicode="?" horiz-adv-x="739" 
d="M420 199v-199h-152v199h152zM532 1094q0 211 -163.5 211t-163.5 -211v-127h-150v116q0 262 118 313.5t200 51.5q166 0 242.5 -98.5t76.5 -281.5t-142 -354.5t-142 -301.5q0 -52 10 -93h-144q-10 45 -10 103t19.5 117t50.5 108t64.5 94t83.5 126.5t50 226.5z" />
    <glyph glyph-name="at" unicode="@" horiz-adv-x="1411" 
d="M838.5 908.5q-29.5 45.5 -99.5 46.5q-134 2 -155 -175l-19 -184q-10 -80 17.5 -131t130.5 -54t127 183l20 197q8 72 -21.5 117.5zM1237 868q0 149 -25.5 236.5t-109 181.5t-305.5 94q-294 0 -447 -217t-153 -581q0 -416 192.5 -492t313.5 -76t219 27t196 102l-12 -141
q-94 -66 -192.5 -88.5t-237.5 -22.5t-378 99t-239 600q0 394 191 654.5t551 260.5q293 0 426 -160t133 -439t-111.5 -454.5t-263.5 -175.5t-162 140q-66 -144 -211 -140q-115 2 -158.5 89.5t-29.5 224.5l22 205q14 141 77 222t177 77q138 0 177 -136l14 127h139l-61 -587
q-10 -88 59 -88q105 0 157 154.5t52 303.5z" />
    <glyph glyph-name="A" unicode="A" horiz-adv-x="864" 
d="M264 426h320l-162 827zM244 289l-56 -289h-147l274 1434h232l274 -1434h-159l-56 289h-362z" />
    <glyph glyph-name="B" unicode="B" horiz-adv-x="802" 
d="M412 145q170 0 170 195v127q0 121 -48.5 167t-152.5 46h-139v-535h170zM365 825q96 0 144 39t48 152v84q0 96 -36 142t-122 46h-157v-463h123zM739 336q0 -336 -327 -336h-330v1434h321q168 0 240 -79t72 -239v-67q0 -115 -37 -185.5t-131 -99.5q192 -54 192 -307v-121z
" />
    <glyph glyph-name="C" unicode="C" horiz-adv-x="778" 
d="M395 131q168 0 168 207v186h152v-178q0 -164 -79 -262t-244 -98t-243.5 98t-78.5 262v741q0 260 119.5 310.5t201.5 50.5q166 0 245 -98.5t79 -262.5v-129h-152v138q0 207 -168 207t-168 -207v-758q0 -207 168 -207z" />
    <glyph glyph-name="D" unicode="D" horiz-adv-x="811" 
d="M586 1085q0 203 -172 203h-172v-1143h174q170 0 170 203v737zM418 1434q168 0 246.5 -95.5t78.5 -261.5v-723q0 -166 -78.5 -260t-246.5 -94h-336v1434h336z" />
    <glyph glyph-name="E" unicode="E" horiz-adv-x="737" 
d="M592 799v-144h-350v-510h430v-145h-590v1434h590v-146h-430v-489h350z" />
    <glyph glyph-name="F" unicode="F" horiz-adv-x="696" 
d="M571 766v-145h-329v-621h-160v1434h569v-146h-409v-522h329z" />
    <glyph glyph-name="G" unicode="G" horiz-adv-x="784" 
d="M395 131q168 0 168 207v287h-147v143h299v-422q0 -164 -79 -262t-244 -98t-243.5 98t-78.5 262v741q0 260 119.5 310.5t201.5 50.5q166 0 245 -98.5t79 -262.5v-122h-152v131q0 207 -168 207t-168 -207v-758q0 -207 168 -207z" />
    <glyph glyph-name="H" unicode="H" horiz-adv-x="835" 
d="M242 645v-645h-160v1434h160v-646h352v646h160v-1434h-160v645h-352z" />
    <glyph glyph-name="I" unicode="I" horiz-adv-x="323" 
d="M242 1434v-1434h-160v1434h160z" />
    <glyph glyph-name="J" unicode="J" horiz-adv-x="522" 
d="M66 143h55q78 4 123 48.5t45 152.5v1090h157v-1080q0 -187 -81 -270t-235 -85q-75 -1 -89 1v145q20 -2 25 -2z" />
    <glyph glyph-name="K" unicode="K" horiz-adv-x="837" 
d="M242 0h-160v1434h160v-693l381 693h161l-362 -654l375 -780h-164l-307 623l-84 -142v-481z" />
    <glyph glyph-name="L" unicode="L" horiz-adv-x="690" 
d="M82 0v1434h160v-1289h409v-145h-569z" />
    <glyph glyph-name="M" unicode="M" horiz-adv-x="1071" 
d="M219 0h-139v1434h223l236 -1145l227 1145h223v-1434h-151v1153l-228 -1151h-153l-238 1141v-1143z" />
    <glyph glyph-name="N" unicode="N" horiz-adv-x="837" 
d="M223 0h-143v1434h203l331 -1037v1037h142v-1434h-166l-367 1159v-1159z" />
    <glyph glyph-name="O" unicode="O" horiz-adv-x="796" 
d="M397 1303q-170 0 -170 -207v-758q0 -207 170 -207t170 207v758q0 207 -170 207zM70 1087q0 166 80.5 263.5t246.5 97.5t248 -97.5t82 -263.5v-741q0 -164 -82 -262t-248 -98t-246.5 98t-80.5 262v741z" />
    <glyph glyph-name="P" unicode="P" horiz-adv-x="765" 
d="M383 709q90 0 133 44t43 148v191q0 98 -38 147t-126 49h-153v-579h141zM395 1434q322 0 322 -351v-172q0 -172 -81 -259t-253 -87h-141v-565h-160v1434h313z" />
    <glyph glyph-name="Q" unicode="Q" horiz-adv-x="823" 
d="M567 1096q0 207 -170 207t-170 -207v-758q0 -207 170 -207t170 207v758zM397 -14q-166 0 -246.5 98t-80.5 262v741q0 166 80.5 263.5t246.5 97.5t248 -97.5t82 -263.5v-741q0 -137 -55 -223q12 -27 32.5 -36t55.5 -9h20v-141h-26q-131 0 -183 92q-75 -43 -174 -43z" />
    <glyph glyph-name="R" unicode="R" horiz-adv-x="806" 
d="M360 758q96 0 149.5 40t53.5 156v138q0 98 -38 147t-128 49h-155v-530h118zM563 174v225q0 121 -54 167t-155 46h-112v-612h-160v1434h319q170 0 245 -84t75 -244v-117q0 -239 -178 -295q98 -29 139 -105.5t41 -193.5v-223q0 -121 29 -172h-162q-27 60 -27 174z" />
    <glyph glyph-name="S" unicode="S" horiz-adv-x="761" 
d="M377 131q168 0 168 205q0 80 -36 138t-89 108.5t-114.5 98.5t-150.5 143.5t-89 263.5t77.5 264t240.5 96t240.5 -97.5t77.5 -260.5v-39h-151v47q0 205 -164 205t-164 -203q0 -80 36 -139.5t89 -109.5t205 -166.5t152 -338.5q0 -166 -79 -263t-245 -97t-244 97t-78 261v82
h150v-90q0 -205 168 -205z" />
    <glyph glyph-name="T" unicode="T" horiz-adv-x="743" 
d="M291 0v1288h-264v146h688v-146h-264v-1288h-160z" />
    <glyph glyph-name="U" unicode="U" 
d="M233 338q0 -207 167 -207t167 207v1096h150v-1088q0 -164 -78 -263t-243 -99t-242.5 99t-77.5 263v1088h157v-1096z" />
    <glyph glyph-name="V" unicode="V" horiz-adv-x="856" 
d="M203 1434l233 -1248l232 1248h147l-268 -1434h-236l-270 1434h162z" />
    <glyph glyph-name="W" unicode="W" horiz-adv-x="1193" 
d="M463 0h-219l-197 1434h156l168 -1221l159 1219h158l158 -1221l162 1223h139l-195 -1434h-211l-137 973z" />
    <glyph glyph-name="X" unicode="X" horiz-adv-x="890" 
d="M438 618l-239 -618h-152l289 739l-270 695h165l222 -574l223 574h149l-268 -695l287 -739h-168z" />
    <glyph glyph-name="Y" unicode="Y" horiz-adv-x="831" 
d="M494 0h-158v514l-303 920h166l223 -705l225 705h152l-305 -920v-514z" />
    <glyph glyph-name="Z" unicode="Z" horiz-adv-x="776" 
d="M711 0h-652v143l492 1145h-469v146h633v-144l-494 -1145h490v-145z" />
    <glyph glyph-name="bracketleft" unicode="[" horiz-adv-x="495" 
d="M438 131v-131h-346v1434h346v-131h-188v-1172h188z" />
    <glyph glyph-name="backslash" unicode="\" horiz-adv-x="770" 
d="M172 1434l565 -1434h-139l-565 1434h139z" />
    <glyph glyph-name="bracketright" unicode="]" horiz-adv-x="495" 
d="M244 131v1172h-187v131h346v-1434h-346v131h187z" />
    <glyph glyph-name="asciicircum" unicode="^" horiz-adv-x="825" 
d="M184 799h-129l299 635h117l299 -635h-129l-229 489z" />
    <glyph glyph-name="underscore" unicode="_" horiz-adv-x="1038" 
d="M1004 -20v-117h-977v117h977z" />
    <glyph glyph-name="grave" unicode="`" horiz-adv-x="456" 
d="M254 1737l141 -211h-116l-191 211h166z" />
    <glyph glyph-name="a" unicode="a" horiz-adv-x="864" 
d="M264 426h320l-162 827zM244 289l-56 -289h-147l274 1434h232l274 -1434h-159l-56 289h-362z" />
    <glyph glyph-name="b" unicode="b" horiz-adv-x="802" 
d="M412 145q170 0 170 195v127q0 121 -48.5 167t-152.5 46h-139v-535h170zM365 825q96 0 144 39t48 152v84q0 96 -36 142t-122 46h-157v-463h123zM739 336q0 -336 -327 -336h-330v1434h321q168 0 240 -79t72 -239v-67q0 -115 -37 -185.5t-131 -99.5q192 -54 192 -307v-121z
" />
    <glyph glyph-name="c" unicode="c" horiz-adv-x="778" 
d="M395 131q168 0 168 207v186h152v-178q0 -164 -79 -262t-244 -98t-243.5 98t-78.5 262v741q0 260 119.5 310.5t201.5 50.5q166 0 245 -98.5t79 -262.5v-129h-152v138q0 207 -168 207t-168 -207v-758q0 -207 168 -207z" />
    <glyph glyph-name="d" unicode="d" horiz-adv-x="811" 
d="M586 1085q0 203 -172 203h-172v-1143h174q170 0 170 203v737zM418 1434q168 0 246.5 -95.5t78.5 -261.5v-723q0 -166 -78.5 -260t-246.5 -94h-336v1434h336z" />
    <glyph glyph-name="e" unicode="e" horiz-adv-x="737" 
d="M592 799v-144h-350v-510h430v-145h-590v1434h590v-146h-430v-489h350z" />
    <glyph glyph-name="f" unicode="f" horiz-adv-x="696" 
d="M571 766v-145h-329v-621h-160v1434h569v-146h-409v-522h329z" />
    <glyph glyph-name="g" unicode="g" horiz-adv-x="784" 
d="M395 131q168 0 168 207v287h-147v143h299v-422q0 -164 -79 -262t-244 -98t-243.5 98t-78.5 262v741q0 260 119.5 310.5t201.5 50.5q166 0 245 -98.5t79 -262.5v-122h-152v131q0 207 -168 207t-168 -207v-758q0 -207 168 -207z" />
    <glyph glyph-name="h" unicode="h" horiz-adv-x="835" 
d="M242 645v-645h-160v1434h160v-646h352v646h160v-1434h-160v645h-352z" />
    <glyph glyph-name="i" unicode="i" horiz-adv-x="323" 
d="M242 1434v-1434h-160v1434h160z" />
    <glyph glyph-name="j" unicode="j" horiz-adv-x="522" 
d="M66 143h55q78 4 123 48.5t45 152.5v1090h157v-1080q0 -187 -81 -270t-235 -85q-75 -1 -89 1v145q20 -2 25 -2z" />
    <glyph glyph-name="k" unicode="k" horiz-adv-x="837" 
d="M242 0h-160v1434h160v-693l381 693h161l-362 -654l375 -780h-164l-307 623l-84 -142v-481z" />
    <glyph glyph-name="l" unicode="l" horiz-adv-x="690" 
d="M82 0v1434h160v-1289h409v-145h-569z" />
    <glyph glyph-name="m" unicode="m" horiz-adv-x="1071" 
d="M219 0h-139v1434h223l236 -1145l227 1145h223v-1434h-151v1153l-228 -1151h-153l-238 1141v-1143z" />
    <glyph glyph-name="n" unicode="n" horiz-adv-x="837" 
d="M223 0h-143v1434h203l331 -1037v1037h142v-1434h-166l-367 1159v-1159z" />
    <glyph glyph-name="o" unicode="o" horiz-adv-x="796" 
d="M397 1303q-170 0 -170 -207v-758q0 -207 170 -207t170 207v758q0 207 -170 207zM70 1087q0 166 80.5 263.5t246.5 97.5t248 -97.5t82 -263.5v-741q0 -164 -82 -262t-248 -98t-246.5 98t-80.5 262v741z" />
    <glyph glyph-name="p" unicode="p" horiz-adv-x="759" 
d="M383 709q90 0 133 44t43 148v191q0 98 -38 147t-126 49h-153v-579h141zM395 1434q322 0 322 -351v-172q0 -172 -81 -259t-253 -87h-141v-565h-160v1434h313z" />
    <glyph glyph-name="q" unicode="q" horiz-adv-x="802" 
d="M567 1096q0 207 -170 207t-170 -207v-758q0 -207 170 -207t170 207v758zM397 -14q-166 0 -246.5 98t-80.5 262v741q0 166 80.5 263.5t246.5 97.5t248 -97.5t82 -263.5v-741q0 -137 -55 -223q12 -27 32.5 -36t55.5 -9h20v-141h-26q-131 0 -183 92q-75 -43 -174 -43z" />
    <glyph glyph-name="r" unicode="r" horiz-adv-x="806" 
d="M360 758q96 0 149.5 40t53.5 156v138q0 98 -38 147t-128 49h-155v-530h118zM563 174v225q0 121 -54 167t-155 46h-112v-612h-160v1434h319q170 0 245 -84t75 -244v-117q0 -239 -178 -295q98 -29 139 -105.5t41 -193.5v-223q0 -121 29 -172h-162q-27 60 -27 174z" />
    <glyph glyph-name="s" unicode="s" horiz-adv-x="761" 
d="M377 131q168 0 168 205q0 80 -36 138t-89 108.5t-114.5 98.5t-150.5 143.5t-89 263.5t77.5 264t240.5 96t240.5 -97.5t77.5 -260.5v-39h-151v47q0 205 -164 205t-164 -203q0 -80 36 -139.5t89 -109.5t205 -166.5t152 -338.5q0 -166 -79 -263t-245 -97t-244 97t-78 261v82
h150v-90q0 -205 168 -205z" />
    <glyph glyph-name="t" unicode="t" horiz-adv-x="737" 
d="M289 0v1288h-264v146h686v-146h-265v-1288h-157z" />
    <glyph glyph-name="u" unicode="u" 
d="M233 338q0 -207 167 -207t167 207v1096h150v-1088q0 -164 -78 -263t-243 -99t-242.5 99t-77.5 263v1088h157v-1096z" />
    <glyph glyph-name="v" unicode="v" horiz-adv-x="856" 
d="M203 1434l233 -1248l232 1248h147l-268 -1434h-236l-270 1434h162z" />
    <glyph glyph-name="w" unicode="w" horiz-adv-x="1193" 
d="M463 0h-219l-197 1434h156l168 -1221l159 1219h158l158 -1221l162 1223h139l-195 -1434h-211l-137 973z" />
    <glyph glyph-name="x" unicode="x" horiz-adv-x="890" 
d="M438 618l-239 -618h-152l289 739l-270 695h165l222 -574l223 574h149l-268 -695l287 -739h-168z" />
    <glyph glyph-name="y" unicode="y" horiz-adv-x="831" 
d="M494 0h-158v514l-303 920h166l223 -705l225 705h152l-305 -920v-514z" />
    <glyph glyph-name="z" unicode="z" horiz-adv-x="776" 
d="M711 0h-652v143l492 1145h-469v146h633v-144l-494 -1145h490v-145z" />
    <glyph glyph-name="braceleft" unicode="{" horiz-adv-x="526" 
d="M438 1303q-66 0 -89 -38t-27 -120l-13 -232q-5 -82 -32.5 -130t-100.5 -66q108 -26 119.5 -95t13.5 -102l13 -231q4 -82 27.5 -120t88.5 -38h39v-131h-94q-188 0 -205 219l-14 279q-4 76 -25.5 110.5t-97.5 40.5v135q76 6 97.5 41t25.5 111l14 278q17 220 205 220h94
v-131h-39z" />
    <glyph glyph-name="bar" unicode="|" horiz-adv-x="763" 
d="M455 1524v-1614h-131v1614h131z" />
    <glyph glyph-name="braceright" unicode="}" horiz-adv-x="526" 
d="M143 1434q190 0 203 -220l16 -278q4 -79 26.5 -113.5t94.5 -38.5v-135q-75 -8 -94.5 -38.5t-26.5 -112.5l-16 -279q-13 -219 -203 -219h-94v131h39q66 0 89.5 38t27.5 120l12 231q5 81 32 130t101 67q-109 27 -120 95.5t-13 100.5l-12 232q-4 82 -27.5 120t-89.5 38h-39
v131h94z" />
    <glyph glyph-name="asciitilde" unicode="~" horiz-adv-x="811" 
d="M248 840q51 0 92 -19.5t79 -43t73.5 -43t72.5 -19.5t64.5 27.5t66.5 84.5l78 -77q-57 -88 -105.5 -122t-98.5 -35t-90 18.5t-77.5 43t-73.5 44t-75 20.5t-68.5 -27.5t-70.5 -87.5l-78 74q106 162 211 162z" />
    <glyph glyph-name="uni00A0" unicode="&#xa0;" horiz-adv-x="317" 
 />
    <glyph glyph-name="exclamdown" unicode="&#xa1;" horiz-adv-x="323" 
d="M242 0h-160v633l20 483h119l21 -483v-633zM238 1434v-197h-154v197h154z" />
    <glyph glyph-name="cent" unicode="&#xa2;" 
d="M236 426q0 -205 168 -205t167 205v137h150v-127q0 -147 -62.5 -242.5t-197.5 -111.5v-102h-131v102q-131 18 -192.5 113.5t-61.5 240.5v561q0 145 61.5 240.5t192.5 114.5v102h131v-100q135 -16 197.5 -109.5t62.5 -240.5v-82h-150v90q1 202 -167 202t-168 -206v-582z
" />
    <glyph glyph-name="sterling" unicode="&#xa3;" horiz-adv-x="800" 
d="M721 145v-145h-653v139q87 34 146 120.5t52 201.5h-170v125h150q-18 59 -45 110.5t-69 146t-42 251.5t77 255.5t240 98.5t241.5 -98t78.5 -267v-114h-152v123q0 98 -36.5 154.5t-162.5 56.5t-126 -209q0 -148 41 -244t66.5 -148.5t41.5 -115.5h275v-125h-264
q4 -163 -142 -316h453z" />
    <glyph glyph-name="currency" unicode="&#xa4;" horiz-adv-x="761" 
d="M380.5 868q-63.5 0 -107.5 -44t-44 -107.5t44 -107.5t107.5 -44t109 44t45.5 107.5t-45.5 107.5t-109 44zM382 467q-77 0 -142 43l-105 -102l-63 63l104 104q-45 61 -45 143t45 138l-104 107l63 63l107 -104q61 45 139 45t141 -45l105 104l65 -63l-106 -107
q45 -61 45 -140t-45 -141l106 -104l-65 -63l-105 102q-63 -43 -140 -43z" />
    <glyph glyph-name="yen" unicode="&#xa5;" horiz-adv-x="847" 
d="M504 475v-121h205v-82h-205v-272h-160v272h-205v82h205v121h-205v84h193l-295 875h166l227 -701l229 701h152l-297 -875h195v-84h-205z" />
    <glyph glyph-name="brokenbar" unicode="&#xa6;" horiz-adv-x="765" 
d="M324 594h131v-684h-131v684zM324 1524h131v-684h-131v684z" />
    <glyph glyph-name="section" unicode="&#xa7;" 
d="M280 534.5q51 -47.5 132 -79.5q66 16 108.5 67t42.5 126t-51 119t-121 77q-66 -10 -114 -62.5t-48 -126.5q0 -73 51 -120.5zM394 -143q-147 0 -232.5 72.5t-85.5 197.5v84h151v-64q0 -76 47.5 -116.5t115.5 -40.5t116.5 36t49.5 98t-34 96t-88 60.5t-115.5 54
t-115.5 66.5t-89 98.5t-36 149.5t50 156.5t128 101.5q-180 97 -180 269q2 123 88 197.5t233.5 74.5t231.5 -74t84 -196v-56h-152v35q0 72 -44 115t-115 43t-118.5 -36.5t-48.5 -98.5t34.5 -95.5t89 -61.5t116 -54.5t151.5 -95.5t89 -222q0 -88 -46 -154.5t-124 -105.5
q172 -88 172 -264q-2 -121 -89 -195.5t-234 -74.5z" />
    <glyph glyph-name="dieresis" unicode="&#xa8;" horiz-adv-x="448" 
d="M377 1702v-184h-139v184h139zM211 1702v-184h-139v184h139z" />
    <glyph glyph-name="copyright" unicode="&#xa9;" horiz-adv-x="1519" 
d="M528 913q0 254 224 254q115 0 169 -68.5t54 -185.5v-61h-107v70q0 141 -114.5 141t-114.5 -141v-410q0 -141 114.5 -141t114.5 141v100h107v-94q0 -115 -54.5 -183.5t-170.5 -68.5t-169 68.5t-53 183.5v395zM760 1339q-129 0 -239.5 -47t-190.5 -130t-125 -197.5
t-45 -247.5t45 -248t125 -198t190.5 -130t239.5 -47t239.5 47t190.5 130t125 198t45 248t-45 247.5t-125 197.5t-190.5 130t-239.5 47zM1263.5 1236q200.5 -206 200.5 -520q0 -311 -200 -517.5t-505 -206.5t-504.5 207t-199.5 518t200.5 518t504 207t504 -206z" />
    <glyph glyph-name="ordfeminine" unicode="&#xaa;" horiz-adv-x="563" 
d="M487 567v-102h-417v102h417zM172 885q0 -115 100 -115t113 121v162q-100 -4 -156.5 -43t-56.5 -111v-14zM98 1219q0 225 203 225q104 0 145 -61.5t41 -163.5v-535h-88l-6 113q-39 -123 -160 -123q-165 0 -165 203v8q0 133 86 186.5t231 58.5v103q0 117 -88 117
q-102 0 -102 -125v-37h-97v31z" />
    <glyph glyph-name="guillemotleft" unicode="&#xab;" horiz-adv-x="655" 
d="M332 719l131 514h143l-129 -514l129 -535h-143zM49 719l129 514h146l-129 -514l129 -535h-146z" />
    <glyph glyph-name="logicalnot" unicode="&#xac;" horiz-adv-x="794" 
d="M61 659v115h672v-391h-115v276h-557z" />
    <glyph glyph-name="uni00AD" unicode="&#xad;" horiz-adv-x="542" 
d="M76 788h391v-143h-391v143z" />
    <glyph glyph-name="registered" unicode="&#xae;" horiz-adv-x="1519" 
d="M750 745q63 0 97 29t34 107v32q0 68 -26 104t-91 36h-107v-308h93zM883 399v95q0 86 -39 116.5t-111 30.5h-76v-362h-110v876h223q117 0 170 -58.5t53 -170.5v-21q0 -164 -119 -207q119 -41 119 -204v-95q0 -85 23 -120h-117q-16 37 -16 120zM760 1339q-129 0 -239.5 -47
t-190.5 -130t-125 -197.5t-45 -247.5t45 -248t125 -198t190.5 -130t239.5 -47t239.5 47t190.5 130t125 198t45 248t-45 247.5t-125 197.5t-190.5 130t-239.5 47zM1263.5 1236q200.5 -206 200.5 -520q0 -311 -200 -517.5t-505 -206.5t-504.5 207t-199.5 518t200.5 518
t504 207t504 -206z" />
    <glyph glyph-name="macron" unicode="&#xaf;" horiz-adv-x="514" 
d="M475 1638v-114h-434v114h434z" />
    <glyph glyph-name="degree" unicode="&#xb0;" horiz-adv-x="448" 
d="M223 1374q-41 0 -70.5 -28.5t-29.5 -70.5t29.5 -71.5t70.5 -29.5t72 29.5t31 71.5t-31 70.5t-72 28.5zM223 1450q74 0 126 -51t52 -125t-52 -125t-126 -51q-112 0 -144 69.5t-32 123t51 106.5t125 53z" />
    <glyph glyph-name="plusminus" unicode="&#xb1;" horiz-adv-x="802" 
d="M344 485v203h-268v115h268v256h115v-256h268v-115h-268v-203h268v-114h-651v114h268z" />
    <glyph glyph-name="twosuperior" unicode="&#xb2;" horiz-adv-x="563" 
d="M393 1407q1 139 -105 139t-106 -133v-78h-98v72q0 104 49 168.5t157 64.5t157 -63.5t49 -150.5t-22.5 -142t-56.5 -102t-74 -88t-98.5 -111t-58.5 -158v-12h299v-94h-401v78q0 125 57.5 200.5t97.5 116.5t97 113.5t57 179.5z" />
    <glyph glyph-name="threesuperior" unicode="&#xb3;" horiz-adv-x="563" 
d="M385 1405q1 139 -105 139t-106 -129v-47h-98v39q0 106 50.5 168.5t155.5 62.5t155 -62.5t50 -168.5v-23q0 -143 -106 -186q106 -43 106 -188v-70q0 -106 -50 -168.5t-155 -62.5t-155.5 62.5t-50.5 168.5v61h98v-69q0 -129 106 -129t105 139v70q0 133 -113 133h-55v94h59
q49 0 79 33t30 92v41z" />
    <glyph glyph-name="acute" unicode="&#xb4;" horiz-adv-x="456" 
d="M365 1737l-191 -211h-111l144 211h158z" />
    <glyph glyph-name="uni00B5" unicode="&#xb5;" horiz-adv-x="815" 
d="M405.5 133q165.5 0 165.5 207v684h160v-1024h-145v147q-29 -74 -84.5 -117.5t-122.5 -43.5q-102 0 -139 94v-268h-160v1212h160v-684q0 -207 165.5 -207z" />
    <glyph glyph-name="paragraph" unicode="&#xb6;" horiz-adv-x="811" 
d="M416 1317v-1446h-117l2 696q-135 4 -198.5 96.5t-63.5 247.5v176q0 164 71.5 255.5t237.5 91.5h369v-1563h-117v1446h-184z" />
    <glyph glyph-name="periodcentered" unicode="&#xb7;" horiz-adv-x="317" 
d="M236 825v-198h-154v198h154z" />
    <glyph glyph-name="cedilla" unicode="&#xb8;" horiz-adv-x="509" 
d="M293 -80q151 0 151 -90q0 -83 -52 -109t-140 -26q-189 0 -189 121v16h109v-14q0 -56 80 -62q82 0 82 68q0 41 -27.5 53t-68.5 12h-17v129h72v-98z" />
    <glyph glyph-name="onesuperior" unicode="&#xb9;" horiz-adv-x="387" 
d="M289 1628v-909h-103v751q-51 -31 -125 -36v75q74 2 106 37t50 82h72z" />
    <glyph glyph-name="ordmasculine" unicode="&#xba;" horiz-adv-x="567" 
d="M494 569v-102h-418v102h418zM389 1221q0 129 -106.5 129t-106.5 -129v-326q0 -129 106.5 -129t106.5 129v326zM282.5 1444q106.5 0 159 -62.5t52.5 -167.5v-313q0 -104 -52.5 -166.5t-159 -62.5t-157.5 62.5t-51 166.5v313q0 104 51 167t157.5 63z" />
    <glyph glyph-name="guillemotright" unicode="&#xbb;" horiz-adv-x="655" 
d="M461 719l-129 514h143l131 -514l-131 -535h-143zM178 719l-129 514h144l131 -514l-131 -535h-144z" />
    <glyph glyph-name="onequarter" unicode="&#xbc;" horiz-adv-x="1181" 
d="M954 276v435l-198 -435h198zM1057 0h-103v180h-292v96l280 633h115v-633h69v-96h-69v-180zM375 0h-96l565 1434h96zM344 1434v-910h-102v752q-51 -31 -125 -37v76q74 2 105.5 36.5t49.5 82.5h72z" />
    <glyph glyph-name="onehalf" unicode="&#xbd;" horiz-adv-x="1226" 
d="M1057 688q1 139 -105 139t-106 -133v-78h-98v72q0 104 48 169t156 65t157.5 -63t49.5 -151t-22.5 -142t-56 -101t-73.5 -89t-98.5 -110.5t-58.5 -156.5v-15h299v-94h-401v78q0 124 57 200t97 117t97.5 113.5t57.5 179.5zM899 1434l-565 -1434h-96l565 1434h96zM344 1434
v-910h-102v752q-51 -31 -125 -37v76q74 2 105.5 36.5t49.5 82.5h72z" />
    <glyph glyph-name="threequarters" unicode="&#xbe;" horiz-adv-x="1232" 
d="M1006 276v435l-199 -435h199zM1006 180h-293v96l280 633h115v-633h70v-96h-70v-180h-102v180zM909 1434h97l-566 -1434h-96zM174 1221v-47h-98v38q0 106 50.5 169t155.5 63t155 -62.5t50 -169.5v-22q0 -143 -106 -186q106 -43 106 -189v-70q0 -106 -50 -168.5t-155 -62.5
t-155.5 62.5t-50.5 168.5v62h98v-70q0 -129 106 -129t105 140v69q0 133 -113 133h-55v94h59q49 0 79 33t30 92v41q0 139 -106 140q-105 0 -105 -129z" />
    <glyph glyph-name="questiondown" unicode="&#xbf;" horiz-adv-x="739" 
d="M371 129q164 0 164 211v127h151v-117q0 -164 -77 -264t-242.5 -100t-241.5 98t-76 278t116 326t141.5 212.5t25.5 123.5t-8 90h141q12 -36 12 -98t-20.5 -121t-50 -108.5t-64.5 -94.5t-85 -127t-50 -225q0 -211 164 -211zM473 1434v-199h-154v199h154z" />
    <glyph glyph-name="Agrave" unicode="&#xc0;" horiz-adv-x="864" 
d="M264 426h320l-162 827zM244 289l-56 -289h-147l274 1434h232l274 -1434h-159l-56 289h-362zM389 1720l143 -211h-116l-191 211h164z" />
    <glyph glyph-name="Aacute" unicode="&#xc1;" horiz-adv-x="864" 
d="M264 426h320l-162 827zM244 289l-56 -289h-147l274 1434h232l274 -1434h-159l-56 289h-362zM625 1720l-189 -211h-112l143 211h158z" />
    <glyph glyph-name="Acircumflex" unicode="&#xc2;" horiz-adv-x="864" 
d="M264 426h320l-162 827zM244 289l-56 -289h-147l274 1434h232l274 -1434h-159l-56 289h-362zM322 1509h-140l176 205h144l176 -205h-139l-109 121z" />
    <glyph glyph-name="Atilde" unicode="&#xc3;" horiz-adv-x="864" 
d="M264 426h320l-162 827zM244 289l-56 -289h-147l274 1434h232l274 -1434h-159l-56 289h-362zM535 1520q-46 0 -101.5 29.5t-87.5 29.5q-57 0 -86 -61l-80 55q45 115 150 119q48 0 103.5 -31t84.5 -31q54 4 82 62l80 -56q-49 -116 -145 -116z" />
    <glyph glyph-name="Adieresis" unicode="&#xc4;" horiz-adv-x="864" 
d="M264 426h320l-162 827zM244 289l-56 -289h-147l274 1434h232l274 -1434h-159l-56 289h-362zM627 1694v-185h-140v185h140zM373 1694v-185h-140v185h140z" />
    <glyph glyph-name="Aring" unicode="&#xc5;" horiz-adv-x="864" 
d="M264 426h320l-162 827zM244 289l-56 -289h-147l274 1434h232l274 -1434h-159l-56 289h-362zM429 1733q-32 0 -53.5 -21.5t-21.5 -53.5t21.5 -52.5t53.5 -20.5t53.5 20.5t21.5 52.5t-21.5 53.5t-53.5 21.5zM428 1808q64 0 108 -43t44 -107t-43 -106.5t-108 -42.5
t-107.5 42.5t-42.5 106.5t42.5 107t106.5 43z" />
    <glyph glyph-name="AE" unicode="&#xc6;" horiz-adv-x="1198" 
d="M569 430v803l-256 -803h256zM1057 799v-144h-330v-510h406v-145h-564v291h-293l-92 -291h-151l446 1434h654v-146h-406v-489h330z" />
    <glyph glyph-name="Ccedilla" unicode="&#xc7;" horiz-adv-x="778" 
d="M426 -76q152 0 152 -110q0 -55 -51.5 -90t-142.5 -35t-140 33.5t-49 93.5v16h104v-14q0 -53 84 -60q88 0 88 66q0 61 -100 61h-19v103q-145 10 -213.5 108.5t-68.5 249.5v741q0 260 119.5 310.5t201.5 50.5q166 0 245 -98.5t79 -262.5v-129h-152v138q0 207 -168 207
t-168 -207v-758q0 -207 168 -207t168 207v186h152v-178q0 -154 -71 -251t-218 -107v-64z" />
    <glyph glyph-name="Egrave" unicode="&#xc8;" horiz-adv-x="737" 
d="M592 799v-144h-350v-510h430v-145h-590v1434h590v-146h-430v-489h350zM342 1731l141 -211h-116l-191 211h166z" />
    <glyph glyph-name="Eacute" unicode="&#xc9;" horiz-adv-x="737" 
d="M592 799v-144h-350v-510h430v-145h-590v1434h590v-146h-430v-489h350zM580 1724l-191 -211h-110l143 211h158z" />
    <glyph glyph-name="Ecircumflex" unicode="&#xca;" horiz-adv-x="737" 
d="M592 799v-144h-350v-510h430v-145h-590v1434h590v-146h-430v-489h350zM266 1513h-139l176 207h141l179 -207h-140l-110 123z" />
    <glyph glyph-name="Edieresis" unicode="&#xcb;" horiz-adv-x="737" 
d="M592 799v-144h-350v-510h430v-145h-590v1434h590v-146h-430v-489h350zM571 1698v-185h-139v185h139zM317 1698v-185h-139v185h139z" />
    <glyph glyph-name="Igrave" unicode="&#xcc;" horiz-adv-x="323" 
d="M82 1434h160v-1434h-160v1434zM-51 1724h166l143 -211h-119z" />
    <glyph glyph-name="Iacute" unicode="&#xcd;" horiz-adv-x="323" 
d="M82 1434h160v-1434h-160v1434zM205 1724h160l-191 -211h-111z" />
    <glyph glyph-name="Icircumflex" unicode="&#xce;" horiz-adv-x="323" 
d="M82 1434h160v-1434h-160v1434zM231 1718l179 -205h-140l-108 121l-109 -121h-139l176 205h141z" />
    <glyph glyph-name="Idieresis" unicode="&#xcf;" horiz-adv-x="323" 
d="M242 1434v-1434h-160v1434h160zM358 1698v-185h-139v185h139zM104 1698v-185h-139v185h139z" />
    <glyph glyph-name="Eth" unicode="&#xd0;" horiz-adv-x="811" 
d="M586 1085q0 203 -172 203h-172v-506h159v-131h-159v-506h174q170 0 170 203v737zM418 1434q168 0 246.5 -95.5t78.5 -261.5v-723q0 -166 -78.5 -260t-246.5 -94h-336v651h-84v131h84v652h336z" />
    <glyph glyph-name="Ntilde" unicode="&#xd1;" horiz-adv-x="837" 
d="M223 0h-143v1434h203l331 -1037v1037h142v-1434h-166l-367 1159v-1159zM524 1528q-46 0 -101.5 29.5t-86.5 29.5q-59 0 -86 -59l-80 53q47 119 152 119q42 0 82 -20.5t60.5 -30t43.5 -9.5q53 0 82 60l80 -53q-49 -119 -146 -119z" />
    <glyph glyph-name="Ograve" unicode="&#xd2;" horiz-adv-x="796" 
d="M567 1096q0 207 -170 207t-170 -207v-758q0 -207 170 -207t170 207v758zM397 1448q166 0 248 -97.5t82 -263.5v-741q0 -164 -82 -262t-248 -98t-246.5 98t-80.5 262v741q0 166 80.5 263.5t246.5 97.5zM356 1731l142 -211h-117l-191 211h166z" />
    <glyph glyph-name="Oacute" unicode="&#xd3;" horiz-adv-x="796" 
d="M567 1096q0 207 -170 207t-170 -207v-758q0 -207 170 -207t170 207v758zM397 1448q166 0 248 -97.5t82 -263.5v-741q0 -164 -82 -262t-248 -98t-246.5 98t-80.5 262v741q0 166 80.5 263.5t246.5 97.5zM600 1731l-190 -211h-111l143 211h158z" />
    <glyph glyph-name="Ocircumflex" unicode="&#xd4;" horiz-adv-x="796" 
d="M567 1096q0 207 -170 207t-170 -207v-758q0 -207 170 -207t170 207v758zM397 1448q166 0 248 -97.5t82 -263.5v-741q0 -164 -82 -262t-248 -98t-246.5 98t-80.5 262v741q0 166 80.5 263.5t246.5 97.5zM289 1518h-139l176 206h141l178 -206h-139l-111 120z" />
    <glyph glyph-name="Otilde" unicode="&#xd5;" horiz-adv-x="796" 
d="M567 1096q0 207 -170 207t-170 -207v-758q0 -207 170 -207t170 207v758zM397 1448q166 0 248 -97.5t82 -263.5v-741q0 -164 -82 -262t-248 -98t-246.5 98t-80.5 262v741q0 166 80.5 263.5t246.5 97.5zM506 1526q-43 0 -83 20.5t-60.5 29.5t-45.5 9q-56 0 -86 -61l-79 55
q49 115 151 119q46 0 101.5 -31t87.5 -31q53 4 81 62l78 -56q-44 -116 -145 -116z" />
    <glyph glyph-name="Odieresis" unicode="&#xd6;" horiz-adv-x="796" 
d="M567 1096q0 207 -170 207t-170 -207v-758q0 -207 170 -207t170 207v758zM397 1448q166 0 248 -97.5t82 -263.5v-741q0 -164 -82 -262t-248 -98t-246.5 98t-80.5 262v741q0 166 80.5 263.5t246.5 97.5zM594 1702v-184h-139v184h139zM340 1702v-184h-139v184h139z" />
    <glyph glyph-name="multiply" unicode="&#xd7;" horiz-adv-x="749" 
d="M592 422l-217 217l-217 -217l-78 78l215 217l-215 215l78 78l217 -215l217 215l78 -78l-217 -215l217 -217z" />
    <glyph glyph-name="Oslash" unicode="&#xd8;" horiz-adv-x="796" 
d="M397 131q170 0 170 207v723l-317 -846q41 -84 147 -84zM397 1303q-170 0 -170 -207v-727l318 848q-41 86 -148 86zM727 1087v-741q0 -164 -82 -262t-248 -98q-129 0 -209 63l-38 -102l-70 26l51 138q-61 92 -61 235v741q0 166 80.5 263.5t246.5 97.5q129 0 211 -64
l37 101l72 -27l-51 -135q61 -92 61 -236z" />
    <glyph glyph-name="Ugrave" unicode="&#xd9;" 
d="M233 338q0 -207 167 -207t167 207v1096h150v-1088q0 -164 -78 -263t-243 -99t-242.5 99t-77.5 263v1088h157v-1096zM354 1724l144 -211h-119l-191 211h166z" />
    <glyph glyph-name="Uacute" unicode="&#xda;" 
d="M233 338q0 -207 167 -207t167 207v1096h150v-1088q0 -164 -78 -263t-243 -99t-242.5 99t-77.5 263v1088h157v-1096zM606 1731l-190 -211h-111l144 211h157z" />
    <glyph glyph-name="Ucircumflex" unicode="&#xdb;" 
d="M233 338q0 -207 167 -207t167 207v1096h150v-1088q0 -164 -78 -263t-243 -99t-242.5 99t-77.5 263v1088h157v-1096zM291 1518h-139l176 206h141l178 -206h-139l-111 120z" />
    <glyph glyph-name="Udieresis" unicode="&#xdc;" 
d="M233 338q0 -207 167 -207t167 207v1096h150v-1088q0 -164 -78 -263t-243 -99t-242.5 99t-77.5 263v1088h157v-1096zM596 1700v-184h-139v184h139zM342 1700v-184h-141v184h141z" />
    <glyph glyph-name="Yacute" unicode="&#xdd;" horiz-adv-x="831" 
d="M494 0h-158v514l-303 920h166l223 -705l225 705h152l-305 -920v-514zM629 1724l-191 -211h-110l143 211h158z" />
    <glyph glyph-name="Thorn" unicode="&#xde;" horiz-adv-x="772" 
d="M383 502q90 0 133 44t43 148v191q0 98 -38 147t-126 49h-153v-579h141zM395 1227q170 0 246 -93.5t76 -259.5v-169q0 -174 -81 -261.5t-253 -87.5h-141v-356h-160v1434h160v-207h153z" />
    <glyph glyph-name="germandbls" unicode="&#xdf;" horiz-adv-x="1492" 
d="M1112 131q168 0 168 205q0 80 -36 138t-89 108.5t-115.5 98.5t-151.5 143.5t-89 263.5t78.5 264t241.5 96t240 -97.5t77 -260.5v-39h-150v47q0 205 -164 205t-164 -203q0 -80 36 -139.5t89.5 -109.5t204 -167.5t150.5 -337.5q0 -166 -78 -263t-244 -97t-244.5 97
t-78.5 261v82h151v-90q0 -205 168 -205zM373 131q168 0 168 205q0 80 -36 138t-89.5 108.5t-114.5 98.5t-150.5 144t-89.5 264q0 167 78 263t242 96t240.5 -97.5t76.5 -260.5v-39h-151v47q0 205 -164 205t-164 -203q0 -80 36 -139.5t89 -109.5t115.5 -98t151.5 -143.5
t89 -262.5t-78.5 -264t-244.5 -97t-244 97t-78 261v82h150v-90q0 -205 168 -205z" />
    <glyph glyph-name="agrave" unicode="&#xe0;" horiz-adv-x="864" 
d="M264 426h320l-162 827zM244 289l-56 -289h-147l274 1434h232l274 -1434h-159l-56 289h-362zM389 1720l143 -211h-116l-191 211h164z" />
    <glyph glyph-name="aacute" unicode="&#xe1;" horiz-adv-x="864" 
d="M264 426h320l-162 827zM244 289l-56 -289h-147l274 1434h232l274 -1434h-159l-56 289h-362zM625 1720l-189 -211h-112l143 211h158z" />
    <glyph glyph-name="acircumflex" unicode="&#xe2;" horiz-adv-x="864" 
d="M264 426h320l-162 827zM244 289l-56 -289h-147l274 1434h232l274 -1434h-159l-56 289h-362zM322 1509h-140l176 205h144l176 -205h-139l-109 121z" />
    <glyph glyph-name="atilde" unicode="&#xe3;" horiz-adv-x="864" 
d="M264 426h320l-162 827zM244 289l-56 -289h-147l274 1434h232l274 -1434h-159l-56 289h-362zM535 1520q-46 0 -101.5 29.5t-87.5 29.5q-57 0 -86 -61l-80 55q45 115 150 119q48 0 103.5 -31t84.5 -31q54 4 82 62l80 -56q-49 -116 -145 -116z" />
    <glyph glyph-name="adieresis" unicode="&#xe4;" horiz-adv-x="864" 
d="M264 426h320l-162 827zM244 289l-56 -289h-147l274 1434h232l274 -1434h-159l-56 289h-362zM627 1694v-185h-140v185h140zM373 1694v-185h-140v185h140z" />
    <glyph glyph-name="aring" unicode="&#xe5;" horiz-adv-x="864" 
d="M264 426h320l-162 827zM244 289l-56 -289h-147l274 1434h232l274 -1434h-159l-56 289h-362zM429 1733q-32 0 -53.5 -21.5t-21.5 -53.5t21.5 -52.5t53.5 -20.5t53.5 20.5t21.5 52.5t-21.5 53.5t-53.5 21.5zM428 1808q64 0 108 -43t44 -107t-43 -106.5t-108 -42.5
t-107.5 42.5t-42.5 106.5t42.5 107t106.5 43z" />
    <glyph glyph-name="ae" unicode="&#xe6;" horiz-adv-x="1198" 
d="M569 430v803l-256 -803h256zM1057 799v-144h-330v-510h406v-145h-564v291h-293l-92 -291h-151l446 1434h654v-146h-406v-489h330z" />
    <glyph glyph-name="ccedilla" unicode="&#xe7;" horiz-adv-x="778" 
d="M426 -76q152 0 152 -110q0 -55 -51.5 -90t-142.5 -35t-140 33.5t-49 93.5v16h104v-14q0 -53 84 -60q88 0 88 66q0 61 -100 61h-19v103q-145 10 -213.5 108.5t-68.5 249.5v741q0 260 119.5 310.5t201.5 50.5q166 0 245 -98.5t79 -262.5v-129h-152v138q0 207 -168 207
t-168 -207v-758q0 -207 168 -207t168 207v186h152v-178q0 -154 -71 -251t-218 -107v-64z" />
    <glyph glyph-name="egrave" unicode="&#xe8;" horiz-adv-x="737" 
d="M592 799v-144h-350v-510h430v-145h-590v1434h590v-146h-430v-489h350zM342 1731l141 -211h-116l-191 211h166z" />
    <glyph glyph-name="eacute" unicode="&#xe9;" horiz-adv-x="737" 
d="M592 799v-144h-350v-510h430v-145h-590v1434h590v-146h-430v-489h350zM580 1724l-191 -211h-110l143 211h158z" />
    <glyph glyph-name="ecircumflex" unicode="&#xea;" horiz-adv-x="737" 
d="M592 799v-144h-350v-510h430v-145h-590v1434h590v-146h-430v-489h350zM266 1513h-139l176 207h141l179 -207h-140l-110 123z" />
    <glyph glyph-name="edieresis" unicode="&#xeb;" horiz-adv-x="737" 
d="M592 799v-144h-350v-510h430v-145h-590v1434h590v-146h-430v-489h350zM571 1698v-185h-139v185h139zM317 1698v-185h-139v185h139z" />
    <glyph glyph-name="igrave" unicode="&#xec;" horiz-adv-x="323" 
d="M82 1434h160v-1434h-160v1434zM-51 1724h166l143 -211h-119z" />
    <glyph glyph-name="iacute" unicode="&#xed;" horiz-adv-x="323" 
d="M82 1434h160v-1434h-160v1434zM205 1724h160l-191 -211h-111z" />
    <glyph glyph-name="icircumflex" unicode="&#xee;" horiz-adv-x="323" 
d="M82 1434h160v-1434h-160v1434zM231 1718l179 -205h-140l-108 121l-109 -121h-139l176 205h141z" />
    <glyph glyph-name="idieresis" unicode="&#xef;" horiz-adv-x="323" 
d="M242 1434v-1434h-160v1434h160zM358 1698v-185h-139v185h139zM104 1698v-185h-139v185h139z" />
    <glyph glyph-name="eth" unicode="&#xf0;" horiz-adv-x="811" 
d="M586 1085q0 203 -172 203h-172v-508h161v-129h-161v-506h174q170 0 170 203v737zM418 1434q168 0 246.5 -95.5t78.5 -261.5v-723q0 -166 -78.5 -260t-246.5 -94h-336v651h-80v129h80v654h336z" />
    <glyph glyph-name="ntilde" unicode="&#xf1;" horiz-adv-x="837" 
d="M223 0h-143v1434h203l331 -1037v1037h142v-1434h-166l-367 1159v-1159zM524 1528q-46 0 -101.5 29.5t-86.5 29.5q-59 0 -86 -59l-80 53q47 119 152 119q42 0 82 -20.5t60.5 -30t43.5 -9.5q53 0 82 60l80 -53q-49 -119 -146 -119z" />
    <glyph glyph-name="ograve" unicode="&#xf2;" horiz-adv-x="796" 
d="M567 1096q0 207 -170 207t-170 -207v-758q0 -207 170 -207t170 207v758zM397 1448q166 0 248 -97.5t82 -263.5v-741q0 -164 -82 -262t-248 -98t-246.5 98t-80.5 262v741q0 166 80.5 263.5t246.5 97.5zM356 1731l142 -211h-117l-191 211h166z" />
    <glyph glyph-name="oacute" unicode="&#xf3;" horiz-adv-x="796" 
d="M567 1096q0 207 -170 207t-170 -207v-758q0 -207 170 -207t170 207v758zM397 1448q166 0 248 -97.5t82 -263.5v-741q0 -164 -82 -262t-248 -98t-246.5 98t-80.5 262v741q0 166 80.5 263.5t246.5 97.5zM600 1731l-190 -211h-111l143 211h158z" />
    <glyph glyph-name="ocircumflex" unicode="&#xf4;" horiz-adv-x="796" 
d="M567 1096q0 207 -170 207t-170 -207v-758q0 -207 170 -207t170 207v758zM397 1448q166 0 248 -97.5t82 -263.5v-741q0 -164 -82 -262t-248 -98t-246.5 98t-80.5 262v741q0 166 80.5 263.5t246.5 97.5zM289 1518h-139l176 206h141l178 -206h-139l-111 120z" />
    <glyph glyph-name="otilde" unicode="&#xf5;" horiz-adv-x="796" 
d="M567 1096q0 207 -170 207t-170 -207v-758q0 -207 170 -207t170 207v758zM397 1448q166 0 248 -97.5t82 -263.5v-741q0 -164 -82 -262t-248 -98t-246.5 98t-80.5 262v741q0 166 80.5 263.5t246.5 97.5zM506 1526q-43 0 -83 20.5t-60.5 29.5t-45.5 9q-56 0 -86 -61l-79 55
q49 115 151 119q46 0 101.5 -31t87.5 -31q53 4 81 62l78 -56q-44 -116 -145 -116z" />
    <glyph glyph-name="odieresis" unicode="&#xf6;" horiz-adv-x="796" 
d="M567 1096q0 207 -170 207t-170 -207v-758q0 -207 170 -207t170 207v758zM397 1448q166 0 248 -97.5t82 -263.5v-741q0 -164 -82 -262t-248 -98t-246.5 98t-80.5 262v741q0 166 80.5 263.5t246.5 97.5zM594 1702v-184h-139v184h139zM340 1702v-184h-139v184h139z" />
    <glyph glyph-name="divide" unicode="&#xf7;" horiz-adv-x="716" 
d="M434 553v-199h-153v199h153zM655 774v-115h-594v115h594zM434 1079v-198h-153v198h153z" />
    <glyph glyph-name="oslash" unicode="&#xf8;" horiz-adv-x="796" 
d="M397 131q170 0 170 207v723l-317 -846q41 -84 147 -84zM397 1303q-170 0 -170 -207v-727l318 848q-41 86 -148 86zM727 1087v-741q0 -164 -82 -262t-248 -98q-129 0 -209 63l-38 -102l-70 26l51 138q-61 92 -61 235v741q0 166 80.5 263.5t246.5 97.5q129 0 211 -64
l37 101l72 -27l-51 -135q61 -92 61 -236z" />
    <glyph glyph-name="ugrave" unicode="&#xf9;" 
d="M233 338q0 -207 167 -207t167 207v1096h150v-1088q0 -164 -78 -263t-243 -99t-242.5 99t-77.5 263v1088h157v-1096zM354 1724l144 -211h-119l-191 211h166z" />
    <glyph glyph-name="uacute" unicode="&#xfa;" 
d="M233 338q0 -207 167 -207t167 207v1096h150v-1088q0 -164 -78 -263t-243 -99t-242.5 99t-77.5 263v1088h157v-1096zM606 1731l-190 -211h-111l144 211h157z" />
    <glyph glyph-name="ucircumflex" unicode="&#xfb;" 
d="M233 338q0 -207 167 -207t167 207v1096h150v-1088q0 -164 -78 -263t-243 -99t-242.5 99t-77.5 263v1088h157v-1096zM291 1518h-139l176 206h141l178 -206h-139l-111 120z" />
    <glyph glyph-name="udieresis" unicode="&#xfc;" 
d="M233 338q0 -207 167 -207t167 207v1096h150v-1088q0 -164 -78 -263t-243 -99t-242.5 99t-77.5 263v1088h157v-1096zM596 1700v-184h-139v184h139zM342 1700v-184h-141v184h141z" />
    <glyph glyph-name="yacute" unicode="&#xfd;" horiz-adv-x="831" 
d="M494 0h-158v514l-303 920h166l223 -705l225 705h152l-305 -920v-514zM629 1724l-191 -211h-110l143 211h158z" />
    <glyph glyph-name="thorn" unicode="&#xfe;" horiz-adv-x="772" 
d="M383 502q90 0 133 44t43 148v191q0 98 -38 147t-126 49h-153v-579h141zM395 1227q170 0 246 -93.5t76 -259.5v-169q0 -174 -81 -261.5t-253 -87.5h-141v-356h-160v1434h160v-207h153z" />
    <glyph glyph-name="ydieresis" unicode="&#xff;" horiz-adv-x="831" 
d="M494 0h-158v514l-303 920h166l223 -705l225 705h152l-305 -920v-514zM616 1698v-185h-139v185h139zM362 1698v-185h-139v185h139z" />
    <glyph glyph-name="Amacron" unicode="&#x100;" horiz-adv-x="864" 
d="M264 426h320l-162 827zM244 289l-56 -289h-147l274 1434h232l274 -1434h-159l-56 289h-362zM647 1651v-115h-434v115h434z" />
    <glyph glyph-name="amacron" unicode="&#x101;" horiz-adv-x="864" 
d="M264 426h320l-162 827zM244 289l-56 -289h-147l274 1434h232l274 -1434h-159l-56 289h-362zM647 1651v-115h-434v115h434z" />
    <glyph glyph-name="Abreve" unicode="&#x102;" horiz-adv-x="864" 
d="M264 426h320l-162 827zM244 289l-56 -289h-147l274 1434h232l274 -1434h-159l-56 289h-362zM643 1708q0 -96 -57.5 -151.5t-157.5 -55.5t-154.5 55.5t-56.5 151.5h96q7 -106 117 -106t117 106h96z" />
    <glyph glyph-name="abreve" unicode="&#x103;" horiz-adv-x="864" 
d="M264 426h320l-162 827zM244 289l-56 -289h-147l274 1434h232l274 -1434h-159l-56 289h-362zM643 1708q0 -96 -57.5 -151.5t-157.5 -55.5t-154.5 55.5t-56.5 151.5h96q7 -106 117 -106t117 106h96z" />
    <glyph glyph-name="Aogonek" unicode="&#x104;" horiz-adv-x="864" 
d="M264 426h320l-162 827zM774.5 -203q37.5 0 73.5 19v-84q-55 -25 -125 -25q-152 0 -156 115q-4 89 99 164l-60 303h-362l-56 -289h-147l274 1434h232l274 -1434h-57q-37 -31 -56.5 -72.5t-17.5 -71.5t24.5 -44.5t60 -14.5z" />
    <glyph glyph-name="aogonek" unicode="&#x105;" horiz-adv-x="864" 
d="M264 426h320l-162 827zM774.5 -203q37.5 0 73.5 19v-84q-55 -25 -125 -25q-152 0 -156 115q-4 89 99 164l-60 303h-362l-56 -289h-147l274 1434h232l274 -1434h-57q-37 -31 -56.5 -72.5t-17.5 -71.5t24.5 -44.5t60 -14.5z" />
    <glyph glyph-name="Cacute" unicode="&#x106;" horiz-adv-x="778" 
d="M395 131q168 0 168 207v186h152v-178q0 -164 -79 -262t-244 -98t-243.5 98t-78.5 262v741q0 260 119.5 310.5t201.5 50.5q166 0 245 -98.5t79 -262.5v-129h-152v138q0 207 -168 207t-168 -207v-758q0 -207 168 -207zM600 1731l-190 -211h-113l143 211h160z" />
    <glyph glyph-name="cacute" unicode="&#x107;" horiz-adv-x="778" 
d="M395 131q168 0 168 207v186h152v-178q0 -164 -79 -262t-244 -98t-243.5 98t-78.5 262v741q0 260 119.5 310.5t201.5 50.5q166 0 245 -98.5t79 -262.5v-129h-152v138q0 207 -168 207t-168 -207v-758q0 -207 168 -207zM600 1731l-190 -211h-113l143 211h160z" />
    <glyph glyph-name="Ccircumflex" unicode="&#x108;" horiz-adv-x="778" 
d="M395 131q168 0 168 207v186h152v-178q0 -164 -79 -262t-244 -98t-243.5 98t-78.5 262v741q0 260 119.5 310.5t201.5 50.5q166 0 245 -98.5t79 -262.5v-129h-152v138q0 207 -168 207t-168 -207v-758q0 -207 168 -207zM287 1516h-140l177 206h141l178 -206h-139l-109 120z
" />
    <glyph glyph-name="ccircumflex" unicode="&#x109;" horiz-adv-x="778" 
d="M395 131q168 0 168 207v186h152v-178q0 -164 -79 -262t-244 -98t-243.5 98t-78.5 262v741q0 260 119.5 310.5t201.5 50.5q166 0 245 -98.5t79 -262.5v-129h-152v138q0 207 -168 207t-168 -207v-758q0 -207 168 -207zM287 1516h-140l177 206h141l178 -206h-139l-109 120z
" />
    <glyph glyph-name="Cdotaccent" unicode="&#x10a;" horiz-adv-x="778" 
d="M395 131q168 0 168 207v186h152v-178q0 -164 -79 -262t-244 -98t-243.5 98t-78.5 262v741q0 260 119.5 310.5t201.5 50.5q166 0 245 -98.5t79 -262.5v-129h-152v138q0 207 -168 207t-168 -207v-758q0 -207 168 -207zM461 1696v-185h-139v185h139z" />
    <glyph glyph-name="cdotaccent" unicode="&#x10b;" horiz-adv-x="778" 
d="M395 131q168 0 168 207v186h152v-178q0 -164 -79 -262t-244 -98t-243.5 98t-78.5 262v741q0 260 119.5 310.5t201.5 50.5q166 0 245 -98.5t79 -262.5v-129h-152v138q0 207 -168 207t-168 -207v-758q0 -207 168 -207zM461 1696v-185h-139v185h139z" />
    <glyph glyph-name="Ccaron" unicode="&#x10c;" horiz-adv-x="778" 
d="M395 131q168 0 168 207v186h152v-178q0 -164 -79 -262t-244 -98t-243.5 98t-78.5 262v741q0 260 119.5 310.5t201.5 50.5q166 0 245 -98.5t79 -262.5v-129h-152v138q0 207 -168 207t-168 -207v-758q0 -207 168 -207zM289 1722l106 -123l109 123h141l-178 -204h-141
l-176 204h139z" />
    <glyph glyph-name="ccaron" unicode="&#x10d;" horiz-adv-x="778" 
d="M395 131q168 0 168 207v186h152v-178q0 -164 -79 -262t-244 -98t-243.5 98t-78.5 262v741q0 260 119.5 310.5t201.5 50.5q166 0 245 -98.5t79 -262.5v-129h-152v138q0 207 -168 207t-168 -207v-758q0 -207 168 -207zM289 1722l106 -123l109 123h141l-178 -204h-141
l-176 204h139z" />
    <glyph glyph-name="Dcaron" unicode="&#x10e;" horiz-adv-x="811" 
d="M586 1085q0 203 -172 203h-172v-1143h174q170 0 170 203v737zM418 1434q168 0 246.5 -95.5t78.5 -261.5v-723q0 -166 -78.5 -260t-246.5 -94h-336v1434h336zM276 1718l109 -123l109 123h141l-178 -205h-142l-178 205h139z" />
    <glyph glyph-name="dcaron" unicode="&#x10f;" horiz-adv-x="811" 
d="M586 1085q0 203 -172 203h-172v-1143h174q170 0 170 203v737zM418 1434q168 0 246.5 -95.5t78.5 -261.5v-723q0 -166 -78.5 -260t-246.5 -94h-336v1434h336zM276 1718l109 -123l109 123h141l-178 -205h-142l-178 205h139z" />
    <glyph glyph-name="Dcroat" unicode="&#x110;" horiz-adv-x="811" 
d="M586 1085q0 203 -172 203h-172v-508h161v-129h-161v-506h174q170 0 170 203v737zM418 1434q168 0 246.5 -95.5t78.5 -261.5v-723q0 -166 -78.5 -260t-246.5 -94h-336v651h-80v129h80v654h336z" />
    <glyph glyph-name="dcroat" unicode="&#x111;" horiz-adv-x="811" 
d="M586 1085q0 203 -172 203h-172v-508h161v-129h-161v-506h174q170 0 170 203v737zM418 1434q168 0 246.5 -95.5t78.5 -261.5v-723q0 -166 -78.5 -260t-246.5 -94h-336v651h-80v129h80v654h336z" />
    <glyph glyph-name="Emacron" unicode="&#x112;" horiz-adv-x="737" 
d="M592 799v-144h-350v-510h430v-145h-590v1434h590v-146h-430v-489h350zM586 1653v-113h-428v113h428z" />
    <glyph glyph-name="emacron" unicode="&#x113;" horiz-adv-x="737" 
d="M592 799v-144h-350v-510h430v-145h-590v1434h590v-146h-430v-489h350zM586 1653v-113h-428v113h428z" />
    <glyph glyph-name="Ebreve" unicode="&#x114;" horiz-adv-x="737" 
d="M592 799v-144h-350v-510h430v-145h-590v1434h590v-146h-430v-489h350zM373 1513q-100 0 -155.5 54.5t-57.5 152.5h96q7 -106 117 -106t119 106h96q-2 -98 -58.5 -152.5t-156.5 -54.5z" />
    <glyph glyph-name="ebreve" unicode="&#x115;" horiz-adv-x="737" 
d="M592 799v-144h-350v-510h430v-145h-590v1434h590v-146h-430v-489h350zM373 1513q-100 0 -155.5 54.5t-57.5 152.5h96q7 -106 117 -106t119 106h96q-2 -98 -58.5 -152.5t-156.5 -54.5z" />
    <glyph glyph-name="Edotaccent" unicode="&#x116;" horiz-adv-x="737" 
d="M592 799v-144h-350v-510h430v-145h-590v1434h590v-146h-430v-489h350zM446 1700v-184h-139v184h139z" />
    <glyph glyph-name="edotaccent" unicode="&#x117;" horiz-adv-x="737" 
d="M592 799v-144h-350v-510h430v-145h-590v1434h590v-146h-430v-489h350zM446 1700v-184h-139v184h139z" />
    <glyph glyph-name="Eogonek" unicode="&#x118;" horiz-adv-x="737" 
d="M82 0v1434h590v-146h-430v-489h350v-144h-350v-510h430v-145h-68q-39 -31 -57.5 -72t-18.5 -69q4 -62 78 -62q46 0 80 19v-84q-55 -25 -125 -25q-151 0 -155 115q0 49 33.5 96t90.5 82h-448z" />
    <glyph glyph-name="eogonek" unicode="&#x119;" horiz-adv-x="737" 
d="M82 0v1434h590v-146h-430v-489h350v-144h-350v-510h430v-145h-68q-39 -31 -57.5 -72t-18.5 -69q4 -62 78 -62q46 0 80 19v-84q-55 -25 -125 -25q-151 0 -155 115q0 49 33.5 96t90.5 82h-448z" />
    <glyph glyph-name="Ecaron" unicode="&#x11a;" horiz-adv-x="737" 
d="M592 799v-144h-350v-510h430v-145h-590v1434h590v-146h-430v-489h350zM268 1718l107 -123l110 123h140l-179 -205h-141l-176 205h139z" />
    <glyph glyph-name="ecaron" unicode="&#x11b;" horiz-adv-x="737" 
d="M592 799v-144h-350v-510h430v-145h-590v1434h590v-146h-430v-489h350zM268 1718l107 -123l110 123h140l-179 -205h-141l-176 205h139z" />
    <glyph glyph-name="Gcircumflex" unicode="&#x11c;" horiz-adv-x="784" 
d="M395 131q168 0 168 207v287h-147v143h299v-422q0 -164 -79 -262t-244 -98t-243.5 98t-78.5 262v741q0 260 119.5 310.5t201.5 50.5q166 0 245 -98.5t79 -262.5v-122h-152v131q0 207 -168 207t-168 -207v-758q0 -207 168 -207zM285 1520h-140l177 204h141l178 -204h-139
l-111 120z" />
    <glyph glyph-name="gcircumflex" unicode="&#x11d;" horiz-adv-x="784" 
d="M395 131q168 0 168 207v287h-147v143h299v-422q0 -164 -79 -262t-244 -98t-243.5 98t-78.5 262v741q0 260 119.5 310.5t201.5 50.5q166 0 245 -98.5t79 -262.5v-122h-152v131q0 207 -168 207t-168 -207v-758q0 -207 168 -207zM285 1520h-140l177 204h141l178 -204h-139
l-111 120z" />
    <glyph glyph-name="Gbreve" unicode="&#x11e;" horiz-adv-x="784" 
d="M395 131q168 0 168 207v287h-147v143h299v-422q0 -164 -79 -262t-244 -98t-243.5 98t-78.5 262v741q0 260 119.5 310.5t201.5 50.5q166 0 245 -98.5t79 -262.5v-122h-152v131q0 207 -168 207t-168 -207v-758q0 -207 168 -207zM391.5 1516q-100.5 0 -156 54t-57.5 152h96
q7 -106 118 -106t118 106h96q-2 -98 -58 -152t-156.5 -54z" />
    <glyph glyph-name="gbreve" unicode="&#x11f;" horiz-adv-x="784" 
d="M395 131q168 0 168 207v287h-147v143h299v-422q0 -164 -79 -262t-244 -98t-243.5 98t-78.5 262v741q0 260 119.5 310.5t201.5 50.5q166 0 245 -98.5t79 -262.5v-122h-152v131q0 207 -168 207t-168 -207v-758q0 -207 168 -207zM391.5 1516q-100.5 0 -156 54t-57.5 152h96
q7 -106 118 -106t118 106h96q-2 -98 -58 -152t-156.5 -54z" />
    <glyph glyph-name="Gdotaccent" unicode="&#x120;" horiz-adv-x="784" 
d="M395 131q168 0 168 207v287h-147v143h299v-422q0 -164 -79 -262t-244 -98t-243.5 98t-78.5 262v741q0 260 119.5 310.5t201.5 50.5q166 0 245 -98.5t79 -262.5v-122h-152v131q0 207 -168 207t-168 -207v-758q0 -207 168 -207zM467 1700v-184h-139v184h139z" />
    <glyph glyph-name="gdotaccent" unicode="&#x121;" horiz-adv-x="784" 
d="M395 131q168 0 168 207v287h-147v143h299v-422q0 -164 -79 -262t-244 -98t-243.5 98t-78.5 262v741q0 260 119.5 310.5t201.5 50.5q166 0 245 -98.5t79 -262.5v-122h-152v131q0 207 -168 207t-168 -207v-758q0 -207 168 -207zM467 1700v-184h-139v184h139z" />
    <glyph glyph-name="uni0122" unicode="&#x122;" horiz-adv-x="784" 
d="M324 -248v180h135v-165l-72 -129h-59l47 114h-51zM395 131q168 0 168 207v287h-147v143h299v-422q0 -164 -79 -262t-244 -98t-243.5 98t-78.5 262v741q0 260 119.5 310.5t201.5 50.5q166 0 245 -98.5t79 -262.5v-122h-152v131q0 207 -168 207t-168 -207v-758
q0 -207 168 -207z" />
    <glyph glyph-name="uni0123" unicode="&#x123;" horiz-adv-x="784" 
d="M326 -248v180h133v-165l-72 -129h-57l45 114h-49zM395 131q168 0 168 207v287h-147v143h299v-422q0 -164 -79 -262t-244 -98t-243.5 98t-78.5 262v741q0 260 119.5 310.5t201.5 50.5q166 0 245 -98.5t79 -262.5v-122h-152v131q0 207 -168 207t-168 -207v-758
q0 -207 168 -207z" />
    <glyph glyph-name="Hcircumflex" unicode="&#x124;" horiz-adv-x="835" 
d="M242 645v-645h-160v1434h160v-646h352v646h160v-1434h-160v645h-352zM309 1518h-139l178 206h141l177 -206h-140l-108 120z" />
    <glyph glyph-name="hcircumflex" unicode="&#x125;" horiz-adv-x="835" 
d="M242 645v-645h-160v1434h160v-646h352v646h160v-1434h-160v645h-352zM309 1518h-139l178 206h141l177 -206h-140l-108 120z" />
    <glyph glyph-name="Hbar" unicode="&#x126;" horiz-adv-x="849" 
d="M600 1053h-352v-265h352v265zM762 1053v-1053h-162v645h-352v-645h-160v1053h-74v118h74v263h160v-263h352v263h162v-263h74v-118h-74z" />
    <glyph glyph-name="hbar" unicode="&#x127;" horiz-adv-x="849" 
d="M600 1053h-352v-265h352v265zM762 1053v-1053h-162v645h-352v-645h-160v1053h-74v118h74v263h160v-263h352v263h162v-263h74v-118h-74z" />
    <glyph glyph-name="Itilde" unicode="&#x128;" horiz-adv-x="323" 
d="M242 1434v-1434h-160v1434h160zM252 1636q51 0 82 60l78 -54q-45 -119 -146 -118q-43 0 -83 20.5t-60.5 29.5t-44.5 9q-59 0 -86 -59l-80 53q51 119 151 119q43 0 101.5 -30t87.5 -30z" />
    <glyph glyph-name="itilde" unicode="&#x129;" horiz-adv-x="323" 
d="M242 1434v-1434h-160v1434h160zM252 1636q51 0 82 60l78 -54q-45 -119 -146 -118q-43 0 -83 20.5t-60.5 29.5t-44.5 9q-59 0 -86 -59l-80 53q51 119 151 119q43 0 101.5 -30t87.5 -30z" />
    <glyph glyph-name="Imacron" unicode="&#x12a;" horiz-adv-x="323" 
d="M242 1434v-1434h-160v1434h160zM365 1651v-115h-408v115h408z" />
    <glyph glyph-name="imacron" unicode="&#x12b;" horiz-adv-x="323" 
d="M242 1434v-1434h-160v1434h160zM365 1651v-115h-408v115h408z" />
    <glyph glyph-name="Ibreve" unicode="&#x12c;" horiz-adv-x="323" 
d="M82 1434h160v-1434h-160v1434zM161 1608q109 0 118 108h96q0 -98 -57.5 -153.5t-158 -55.5t-154.5 55.5t-56 153.5h96q7 -108 116 -108z" />
    <glyph glyph-name="ibreve" unicode="&#x12d;" horiz-adv-x="323" 
d="M82 1434h160v-1434h-160v1434zM161 1608q109 0 118 108h96q0 -98 -57.5 -153.5t-158 -55.5t-154.5 55.5t-56 153.5h96q7 -108 116 -108z" />
    <glyph glyph-name="Iogonek" unicode="&#x12e;" horiz-adv-x="323" 
d="M215 -203q44 0 82 19v-84q-55 -25 -127 -25q-154 0 -154 115q-2 47 31 94t94 84h-59v1434h160v-1434h-29q-39 -31 -57.5 -72t-16.5 -69q0 -62 76 -62z" />
    <glyph glyph-name="iogonek" unicode="&#x12f;" horiz-adv-x="323" 
d="M215 -203q44 0 82 19v-84q-55 -25 -127 -25q-154 0 -154 115q-2 47 31 94t94 84h-59v1434h160v-1434h-29q-39 -31 -57.5 -72t-16.5 -69q0 -62 76 -62z" />
    <glyph glyph-name="Idotaccent" unicode="&#x130;" horiz-adv-x="323" 
d="M242 1434v-1434h-160v1434h160zM231 1698v-185h-139v185h139z" />
    <glyph glyph-name="dotlessi" unicode="&#x131;" horiz-adv-x="323" 
d="M242 1434v-1434h-160v1434h160z" />
    <glyph glyph-name="IJ" unicode="&#x132;" horiz-adv-x="843" 
d="M770 354q0 -278 -138 -321t-270 -33v145q20 -2 25 -2h53q82 4 126 48.5t44 152.5v1090h160v-1080zM242 1434v-1434h-160v1434h160z" />
    <glyph glyph-name="ij" unicode="&#x133;" horiz-adv-x="843" 
d="M770 354q0 -278 -138 -321t-270 -33v145q20 -2 25 -2h53q82 4 126 48.5t44 152.5v1090h160v-1080zM242 1434v-1434h-160v1434h160z" />
    <glyph glyph-name="Jcircumflex" unicode="&#x134;" horiz-adv-x="522" 
d="M66 143h55q78 4 123 48.5t45 152.5v1090h157v-1080q0 -187 -81 -270t-235 -85q-75 -1 -89 1v145q20 -2 25 -2zM233 1513h-139l176 207h142l178 -207h-139l-109 123z" />
    <glyph glyph-name="jcircumflex" unicode="&#x135;" horiz-adv-x="522" 
d="M66 143h55q78 4 123 48.5t45 152.5v1090h157v-1080q0 -187 -81 -270t-235 -85q-75 -1 -89 1v145q20 -2 25 -2zM233 1513h-139l176 207h142l178 -207h-139l-109 123z" />
    <glyph glyph-name="uni0136" unicode="&#x136;" horiz-adv-x="837" 
d="M352 -248v180h135v-165l-71 -129h-60l47 114h-51zM242 0h-160v1434h160v-693l381 693h161l-362 -654l375 -780h-164l-307 623l-84 -142v-481z" />
    <glyph glyph-name="uni0137" unicode="&#x137;" horiz-adv-x="837" 
d="M352 -248v180h135v-165l-71 -129h-60l47 114h-51zM242 0h-160v1434h160v-693l381 693h161l-362 -654l375 -780h-164l-307 623l-84 -142v-481z" />
    <glyph glyph-name="kgreenlandic" unicode="&#x138;" horiz-adv-x="837" 
d="M242 0h-160v1434h160v-693l381 693h161l-362 -654l375 -780h-164l-307 623l-84 -142v-481z" />
    <glyph glyph-name="Lacute" unicode="&#x139;" horiz-adv-x="690" 
d="M82 0v1434h160v-1289h409v-145h-569zM422 1724l-191 -211h-110l143 211h158z" />
    <glyph glyph-name="lacute" unicode="&#x13a;" horiz-adv-x="690" 
d="M82 0v1434h160v-1289h409v-145h-569zM416 1724l-191 -211h-110l141 211h160z" />
    <glyph glyph-name="uni013B" unicode="&#x13b;" horiz-adv-x="690" 
d="M305 -250v178h135v-166l-71 -129h-60l47 117h-51zM82 0v1434h160v-1289h409v-145h-569z" />
    <glyph glyph-name="uni013C" unicode="&#x13c;" horiz-adv-x="690" 
d="M313 -248v180h133v-165l-71 -129h-58l45 114h-49zM82 0v1434h160v-1289h409v-145h-569z" />
    <glyph glyph-name="Lcaron" unicode="&#x13d;" horiz-adv-x="690" 
d="M436 1235v199h154v-183l-78 -196h-68l52 180h-60zM82 0v1434h160v-1289h409v-145h-569z" />
    <glyph glyph-name="lcaron" unicode="&#x13e;" horiz-adv-x="690" 
d="M436 1235v199h154v-183l-78 -196h-68l52 180h-60zM82 0v1434h160v-1289h409v-145h-569z" />
    <glyph glyph-name="Ldot" unicode="&#x13f;" horiz-adv-x="690" 
d="M557 819v-198h-154v198h154zM82 0v1434h160v-1289h409v-145h-569z" />
    <glyph glyph-name="ldot" unicode="&#x140;" horiz-adv-x="690" 
d="M557 819v-198h-154v198h154zM82 0v1434h160v-1289h409v-145h-569z" />
    <glyph glyph-name="Lslash" unicode="&#x141;" horiz-adv-x="712" 
d="M262 145h412v-145h-570v426l-104 -102v147l104 102v861h158v-691l223 232v-148l-223 -231v-451z" />
    <glyph glyph-name="lslash" unicode="&#x142;" horiz-adv-x="712" 
d="M262 145h412v-145h-570v426l-104 -102v147l104 102v861h158v-691l223 232v-148l-223 -231v-451z" />
    <glyph glyph-name="Nacute" unicode="&#x143;" horiz-adv-x="837" 
d="M223 0h-143v1434h203l331 -1037v1037h142v-1434h-166l-367 1161v-1161zM627 1724l-191 -208h-110l143 208h158z" />
    <glyph glyph-name="nacute" unicode="&#x144;" horiz-adv-x="837" 
d="M223 0h-143v1434h203l331 -1037v1037h142v-1434h-166l-367 1161v-1161zM627 1724l-191 -208h-110l143 208h158z" />
    <glyph glyph-name="uni0145" unicode="&#x145;" horiz-adv-x="837" 
d="M350 -248v180h133v-165l-71 -129h-58l47 114h-51zM223 0h-143v1434h203l331 -1037v1037h142v-1434h-166l-367 1159v-1159z" />
    <glyph glyph-name="uni0146" unicode="&#x146;" horiz-adv-x="837" 
d="M350 -248v180h133v-165l-71 -129h-58l47 114h-51zM223 0h-143v1434h203l331 -1037v1037h142v-1434h-166l-367 1159v-1159z" />
    <glyph glyph-name="Ncaron" unicode="&#x147;" horiz-adv-x="837" 
d="M223 0h-143v1434h203l331 -1037v1037h142v-1434h-166l-367 1159v-1159zM311 1724l109 -122l108 122h140l-176 -206h-142l-178 206h139z" />
    <glyph glyph-name="ncaron" unicode="&#x148;" horiz-adv-x="837" 
d="M223 0h-143v1434h203l331 -1037v1037h142v-1434h-166l-367 1159v-1159zM311 1724l109 -122l108 122h140l-176 -206h-142l-178 206h139z" />
    <glyph glyph-name="napostrophe" unicode="&#x149;" horiz-adv-x="1030" 
d="M418 0h-144v1434h203l332 -1037v1037h141v-1434h-166l-366 1159v-1159zM23 1235v199h153v-183l-78 -196h-67l51 180h-59z" />
    <glyph glyph-name="Omacron" unicode="&#x14c;" horiz-adv-x="796" 
d="M567 1096q0 207 -170 207t-170 -207v-758q0 -207 170 -207t170 207v758zM397 1448q166 0 248 -97.5t82 -263.5v-741q0 -164 -82 -262t-248 -98t-246.5 98t-80.5 262v741q0 166 80.5 263.5t246.5 97.5zM612 1651v-113h-426v113h426z" />
    <glyph glyph-name="omacron" unicode="&#x14d;" horiz-adv-x="796" 
d="M567 1096q0 207 -170 207t-170 -207v-758q0 -207 170 -207t170 207v758zM397 1448q166 0 248 -97.5t82 -263.5v-741q0 -164 -82 -262t-248 -98t-246.5 98t-80.5 262v741q0 166 80.5 263.5t246.5 97.5zM612 1651v-113h-426v113h426z" />
    <glyph glyph-name="Obreve" unicode="&#x14e;" horiz-adv-x="796" 
d="M567 1096q0 207 -170 207t-170 -207v-758q0 -207 170 -207t170 207v758zM397 1448q166 0 248 -97.5t82 -263.5v-741q0 -164 -82 -262t-248 -98t-246.5 98t-80.5 262v741q0 166 80.5 263.5t246.5 97.5zM398 1516q-100 0 -156 54t-58 152h97q7 -106 117 -106t118 106h96
q-2 -98 -58 -152t-156 -54z" />
    <glyph glyph-name="obreve" unicode="&#x14f;" horiz-adv-x="796" 
d="M567 1096q0 207 -170 207t-170 -207v-758q0 -207 170 -207t170 207v758zM397 1448q166 0 248 -97.5t82 -263.5v-741q0 -164 -82 -262t-248 -98t-246.5 98t-80.5 262v741q0 166 80.5 263.5t246.5 97.5zM398 1516q-100 0 -156 54t-58 152h97q7 -106 117 -106t118 106h96
q-2 -98 -58 -152t-156 -54z" />
    <glyph glyph-name="Ohungarumlaut" unicode="&#x150;" horiz-adv-x="796" 
d="M567 1096q0 207 -170 207t-170 -207v-758q0 -207 170 -207t170 207v758zM397 1448q166 0 248 -97.5t82 -263.5v-741q0 -164 -82 -262t-248 -98t-246.5 98t-80.5 262v741q0 166 80.5 263.5t246.5 97.5zM692 1731l-166 -211h-100l117 211h149zM471 1731l-164 -211h-100
l117 211h147z" />
    <glyph glyph-name="ohungarumlaut" unicode="&#x151;" horiz-adv-x="796" 
d="M567 1096q0 207 -170 207t-170 -207v-758q0 -207 170 -207t170 207v758zM397 1448q166 0 248 -97.5t82 -263.5v-741q0 -164 -82 -262t-248 -98t-246.5 98t-80.5 262v741q0 166 80.5 263.5t246.5 97.5zM692 1731l-166 -211h-100l117 211h149zM471 1731l-164 -211h-100
l117 211h147z" />
    <glyph glyph-name="OE" unicode="&#x152;" horiz-adv-x="1181" 
d="M227 348q0 -203 160 -203h166v1143h-166q-160 0 -160 -203v-737zM1040 799v-144h-329v-510h405v-145h-731q-166 0 -241.5 97.5t-75.5 258.5v721q0 162 75.5 259.5t241.5 97.5h731v-146h-405v-489h329z" />
    <glyph glyph-name="oe" unicode="&#x153;" horiz-adv-x="1181" 
d="M227 348q0 -203 160 -203h166v1143h-166q-160 0 -160 -203v-737zM1040 799v-144h-329v-510h405v-145h-731q-166 0 -241.5 97.5t-75.5 258.5v721q0 162 75.5 259.5t241.5 97.5h731v-146h-405v-489h329z" />
    <glyph glyph-name="Racute" unicode="&#x154;" horiz-adv-x="806" 
d="M360 758q96 0 149.5 40t53.5 156v138q0 98 -38 147t-128 49h-155v-530h118zM563 174v225q0 121 -54 167t-155 46h-112v-612h-160v1434h319q170 0 245 -84t75 -244v-117q0 -239 -178 -295q98 -29 139 -105.5t41 -193.5v-223q0 -121 29 -172h-162q-27 60 -27 174zM588 1731
l-191 -211h-110l141 211h160z" />
    <glyph glyph-name="racute" unicode="&#x155;" horiz-adv-x="806" 
d="M360 758q96 0 149.5 40t53.5 156v138q0 98 -38 147t-128 49h-155v-530h118zM563 174v225q0 121 -54 167t-155 46h-112v-612h-160v1434h319q170 0 245 -84t75 -244v-117q0 -239 -178 -295q98 -29 139 -105.5t41 -193.5v-223q0 -121 29 -172h-162q-27 60 -27 174zM588 1731
l-191 -211h-110l141 211h160z" />
    <glyph glyph-name="uni0156" unicode="&#x156;" horiz-adv-x="806" 
d="M336 -246v178h133v-165l-72 -129h-59l47 116h-49zM360 758q96 0 149.5 40t53.5 156v138q0 98 -38 147t-128 49h-155v-530h118zM563 174v225q0 121 -54 167t-155 46h-112v-612h-160v1434h319q170 0 245 -84t75 -244v-117q0 -239 -178 -295q98 -29 139 -105.5t41 -193.5
v-223q0 -121 29 -172h-162q-27 60 -27 174z" />
    <glyph glyph-name="uni0157" unicode="&#x157;" horiz-adv-x="806" 
d="M336 -248v180h135v-165l-72 -129h-59l47 114h-51zM360 758q96 0 149.5 40t53.5 156v138q0 98 -38 147t-128 49h-155v-530h118zM563 174v225q0 121 -54 167t-155 46h-112v-612h-160v1434h319q170 0 245 -84t75 -244v-117q0 -239 -178 -295q98 -29 139 -105.5t41 -193.5
v-223q0 -121 29 -172h-162q-27 60 -27 174z" />
    <glyph glyph-name="Rcaron" unicode="&#x158;" horiz-adv-x="806" 
d="M360 758q96 0 149.5 40t53.5 156v138q0 98 -38 147t-128 49h-155v-530h118zM563 174v225q0 121 -54 167t-155 46h-112v-612h-160v1434h319q170 0 245 -84t75 -244v-117q0 -239 -178 -295q98 -29 139 -105.5t41 -193.5v-223q0 -121 29 -172h-162q-27 60 -27 174zM272 1724
l109 -122l108 122h140l-178 -204h-142l-176 204h139z" />
    <glyph glyph-name="rcaron" unicode="&#x159;" horiz-adv-x="806" 
d="M360 758q96 0 149.5 40t53.5 156v138q0 98 -38 147t-128 49h-155v-530h118zM563 174v225q0 121 -54 167t-155 46h-112v-612h-160v1434h319q170 0 245 -84t75 -244v-117q0 -239 -178 -295q98 -29 139 -105.5t41 -193.5v-223q0 -121 29 -172h-162q-27 60 -27 174zM272 1724
l109 -122l108 122h140l-178 -204h-142l-176 204h139z" />
    <glyph glyph-name="Sacute" unicode="&#x15a;" horiz-adv-x="761" 
d="M377 131q168 0 168 205q0 80 -36 138t-89 108.5t-114.5 98.5t-150.5 143.5t-89 263.5t77.5 264t240.5 96t240.5 -97.5t77.5 -260.5v-39h-151v47q0 205 -164 205t-164 -203q0 -80 36 -139.5t89 -109.5t205 -166.5t152 -338.5q0 -166 -79 -263t-245 -97t-244 97t-78 261v82
h150v-90q0 -205 168 -205zM592 1731l-191 -211h-110l141 211h160z" />
    <glyph glyph-name="sacute" unicode="&#x15b;" horiz-adv-x="761" 
d="M377 131q168 0 168 205q0 80 -36 138t-89 108.5t-114.5 98.5t-150.5 143.5t-89 263.5t77.5 264t240.5 96t240.5 -97.5t77.5 -260.5v-39h-151v47q0 205 -164 205t-164 -203q0 -80 36 -139.5t89 -109.5t205 -166.5t152 -338.5q0 -166 -79 -263t-245 -97t-244 97t-78 261v82
h150v-90q0 -205 168 -205zM592 1731l-191 -211h-110l141 211h160z" />
    <glyph glyph-name="Scircumflex" unicode="&#x15c;" horiz-adv-x="761" 
d="M377 131q168 0 168 205q0 80 -36 138t-89 108.5t-114.5 98.5t-150.5 143.5t-89 263.5t77.5 264t240.5 96t240.5 -97.5t77.5 -260.5v-39h-151v47q0 205 -164 205t-164 -203q0 -80 36 -139.5t89 -109.5t205 -166.5t152 -338.5q0 -166 -79 -263t-245 -97t-244 97t-78 261v82
h150v-90q0 -205 168 -205zM276 1518h-139l178 206h142l176 -206h-139l-109 120z" />
    <glyph glyph-name="scircumflex" unicode="&#x15d;" horiz-adv-x="761" 
d="M377 131q168 0 168 205q0 80 -36 138t-89 108.5t-114.5 98.5t-150.5 143.5t-89 263.5t77.5 264t240.5 96t240.5 -97.5t77.5 -260.5v-39h-151v47q0 205 -164 205t-164 -203q0 -80 36 -139.5t89 -109.5t205 -166.5t152 -338.5q0 -166 -79 -263t-245 -97t-244 97t-78 261v82
h150v-90q0 -205 168 -205zM276 1518h-139l178 206h142l176 -206h-139l-109 120z" />
    <glyph glyph-name="Scedilla" unicode="&#x15e;" horiz-adv-x="761" 
d="M412 -76q151 0 151 -110q0 -55 -51 -90t-142 -35t-140.5 33.5t-49.5 93.5v16h105v-14q0 -53 84 -60q88 0 88 66q0 61 -101 61h-18v103q-145 12 -212 107t-67 249v82h150v-90q0 -205 168 -205t168 205q0 80 -36 138t-89 108.5t-114.5 98.5t-150.5 143.5t-89 263.5
t77.5 264t240.5 96t240.5 -97.5t77.5 -260.5v-39h-151v47q0 205 -164 205t-164 -203q0 -80 36 -139.5t89 -109.5t205 -166.5t152 -334.5q0 -162 -72 -257t-221 -105v-64z" />
    <glyph glyph-name="scedilla" unicode="&#x15f;" horiz-adv-x="761" 
d="M412 -76q151 0 151 -110q0 -55 -51 -90t-142 -35t-140.5 33.5t-49.5 93.5v16h105v-14q0 -53 84 -60q88 0 88 66q0 61 -101 61h-18v103q-145 12 -212 107t-67 249v82h150v-90q0 -205 168 -205t168 205q0 80 -36 138t-89 108.5t-114.5 98.5t-150.5 143.5t-89 263.5
t77.5 264t240.5 96t240.5 -97.5t77.5 -260.5v-39h-151v47q0 205 -164 205t-164 -203q0 -80 36 -139.5t89 -109.5t205 -166.5t152 -334.5q0 -162 -72 -257t-221 -105v-64z" />
    <glyph glyph-name="Scaron" unicode="&#x160;" horiz-adv-x="761" 
d="M377 131q168 0 168 205q0 80 -36 138t-89 108.5t-114.5 98.5t-150.5 143.5t-89 263.5t77.5 264t240.5 96t240.5 -97.5t77.5 -260.5v-39h-151v47q0 205 -164 205t-164 -203q0 -80 36 -139.5t89 -109.5t205 -166.5t152 -338.5q0 -166 -79 -263t-245 -97t-244 97t-78 261v82
h150v-90q0 -205 168 -205zM276 1724l107 -122l109 122h141l-178 -204h-142l-176 204h139z" />
    <glyph glyph-name="scaron" unicode="&#x161;" horiz-adv-x="761" 
d="M377 131q168 0 168 205q0 80 -36 138t-89 108.5t-114.5 98.5t-150.5 143.5t-89 263.5t77.5 264t240.5 96t240.5 -97.5t77.5 -260.5v-39h-151v47q0 205 -164 205t-164 -203q0 -80 36 -139.5t89 -109.5t205 -166.5t152 -338.5q0 -166 -79 -263t-245 -97t-244 97t-78 261v82
h150v-90q0 -205 168 -205zM274 1724l109 -122l109 122h139l-178 -204h-142l-176 204h139z" />
    <glyph glyph-name="uni0162" unicode="&#x162;" horiz-adv-x="761" 
d="M295 -209q0 -59 81 -59t81 71q0 66 -97 66h-18v131h-41v1288h-264v146h688v-146h-264v-1288h-43v-78q59 0 98 -28t39 -78q0 -86 -49.5 -123t-106.5 -37q-96 0 -148 34.5t-52 100.5v16h96v-16z" />
    <glyph glyph-name="uni0163" unicode="&#x163;" horiz-adv-x="761" 
d="M295 -209q0 -59 81 -59t81 71q0 66 -97 66h-18v131h-41v1288h-264v146h688v-146h-264v-1288h-43v-78q59 0 98 -28t39 -78q0 -86 -49.5 -123t-106.5 -37q-96 0 -148 34.5t-52 100.5v16h96v-16z" />
    <glyph glyph-name="Tcaron" unicode="&#x164;" horiz-adv-x="761" 
d="M301 0v1288h-264v146h688v-146h-264v-1288h-160zM272 1720l107 -123l110 123h140l-178 -207h-142l-176 207h139z" />
    <glyph glyph-name="tcaron" unicode="&#x165;" horiz-adv-x="761" 
d="M301 0v1288h-264v146h688v-146h-264v-1288h-160zM272 1720l107 -123l110 123h140l-178 -207h-142l-176 207h139z" />
    <glyph glyph-name="Tbar" unicode="&#x166;" horiz-adv-x="761" 
d="M606 975v-119h-145v-856h-160v856h-145v119h145v313h-264v146h688v-146h-264v-313h145z" />
    <glyph glyph-name="tbar" unicode="&#x167;" horiz-adv-x="761" 
d="M606 975v-119h-145v-856h-160v856h-145v119h145v313h-264v146h688v-146h-264v-313h145z" />
    <glyph glyph-name="Utilde" unicode="&#x168;" 
d="M233 338q0 -207 167 -207t167 207v1096h150v-1088q0 -164 -78 -263t-243 -99t-242.5 99t-77.5 263v1088h157v-1096zM502 1526q-44 0 -99.5 29.5t-87.5 29.5q-56 0 -86 -61l-79 55q45 115 149 119q46 0 101.5 -31t86.5 -31q54 4 82 62l80 -56q-48 -116 -147 -116z" />
    <glyph glyph-name="utilde" unicode="&#x169;" 
d="M233 338q0 -207 167 -207t167 207v1096h150v-1088q0 -164 -78 -263t-243 -99t-242.5 99t-77.5 263v1088h157v-1096zM502 1526q-44 0 -99.5 29.5t-87.5 29.5q-56 0 -86 -61l-79 55q45 115 149 119q46 0 101.5 -31t86.5 -31q54 4 82 62l80 -56q-48 -116 -147 -116z" />
    <glyph glyph-name="Umacron" unicode="&#x16a;" 
d="M233 338q0 -207 167 -207t167 207v1096h150v-1088q0 -164 -78 -263t-243 -99t-242.5 99t-77.5 263v1088h157v-1096zM610 1651v-115h-420v115h420z" />
    <glyph glyph-name="umacron" unicode="&#x16b;" 
d="M233 338q0 -207 167 -207t167 207v1096h150v-1088q0 -164 -78 -263t-243 -99t-242.5 99t-77.5 263v1088h157v-1096zM610 1651v-115h-420v115h420z" />
    <glyph glyph-name="Ubreve" unicode="&#x16c;" 
d="M233 338q0 -207 167 -207t167 207v1096h150v-1088q0 -164 -78 -263t-243 -99t-242.5 99t-77.5 263v1088h157v-1096zM428.5 1608q80.5 0 87.5 108h96q-2 -98 -58 -153.5t-156.5 -55.5t-156 55.5t-57.5 153.5h97q4 -61 35.5 -84.5t112 -23.5z" />
    <glyph glyph-name="ubreve" unicode="&#x16d;" 
d="M233 338q0 -207 167 -207t167 207v1096h150v-1088q0 -164 -78 -263t-243 -99t-242.5 99t-77.5 263v1088h157v-1096zM428.5 1608q80.5 0 87.5 108h96q-2 -98 -58 -153.5t-156.5 -55.5t-156 55.5t-57.5 153.5h97q4 -61 35.5 -84.5t112 -23.5z" />
    <glyph glyph-name="Uring" unicode="&#x16e;" 
d="M233 338q0 -207 167 -207t167 207v1096h150v-1088q0 -164 -78 -263t-243 -99t-242.5 99t-77.5 263v1088h157v-1096zM401.5 1729q-30.5 0 -52 -20.5t-21.5 -53.5t21.5 -53.5t52 -20.5t53 20.5t22.5 53.5t-22.5 53.5t-53 20.5zM401.5 1804q63.5 0 107.5 -43t44 -106.5
t-44 -106.5t-107.5 -43t-106.5 43t-43 106.5t43 106.5t106.5 43z" />
    <glyph glyph-name="uring" unicode="&#x16f;" 
d="M233 338q0 -207 167 -207t167 207v1096h150v-1088q0 -164 -78 -263t-243 -99t-242.5 99t-77.5 263v1088h157v-1096zM401.5 1729q-30.5 0 -52 -20.5t-21.5 -53.5t21.5 -53.5t52 -20.5t53 20.5t22.5 53.5t-22.5 53.5t-53 20.5zM401.5 1804q63.5 0 107.5 -43t44 -106.5
t-44 -106.5t-107.5 -43t-106.5 43t-43 106.5t43 106.5t106.5 43z" />
    <glyph glyph-name="Uhungarumlaut" unicode="&#x170;" 
d="M233 338q0 -207 167 -207t167 207v1096h150v-1088q0 -164 -78 -263t-243 -99t-242.5 99t-77.5 263v1088h157v-1096zM690 1729l-166 -211h-98l115 211h149zM469 1729l-164 -211h-100l117 211h147z" />
    <glyph glyph-name="uhungarumlaut" unicode="&#x171;" 
d="M233 338q0 -207 167 -207t167 207v1096h150v-1088q0 -164 -78 -263t-243 -99t-242.5 99t-77.5 263v1088h157v-1096zM690 1729l-166 -211h-98l115 211h149zM469 1729l-164 -211h-100l117 211h147z" />
    <glyph glyph-name="Uogonek" unicode="&#x172;" 
d="M233 338q0 -207 167 -207t167 207v1096h150v-1088q0 -117 -33.5 -201.5t-120.5 -134.5q-41 -33 -61.5 -76.5t-19.5 -75.5t24.5 -46.5t62 -14.5t72.5 19v-84q-55 -25 -127 -25q-154 0 -154 115q-4 92 109 170q-31 -8 -74 -8q-164 0 -241.5 99t-77.5 263v1088h157v-1096z
" />
    <glyph glyph-name="uogonek" unicode="&#x173;" 
d="M233 338q0 -207 167 -207t167 207v1096h150v-1088q0 -117 -33.5 -201.5t-120.5 -134.5q-41 -33 -61.5 -76.5t-19.5 -75.5t24.5 -46.5t62 -14.5t72.5 19v-84q-55 -25 -127 -25q-154 0 -154 115q-4 92 109 170q-31 -8 -74 -8q-164 0 -241.5 99t-77.5 263v1088h157v-1096z
" />
    <glyph glyph-name="Wcircumflex" unicode="&#x174;" horiz-adv-x="1193" 
d="M463 0h-219l-197 1434h156l168 -1221l159 1219h158l158 -1221l162 1223h139l-195 -1434h-211l-137 973zM492 1516h-140l176 206h142l178 -206h-139l-109 120z" />
    <glyph glyph-name="wcircumflex" unicode="&#x175;" horiz-adv-x="1193" 
d="M463 0h-219l-197 1434h156l168 -1221l159 1219h158l158 -1221l162 1223h139l-195 -1434h-211l-137 973zM492 1516h-140l176 206h142l178 -206h-139l-109 120z" />
    <glyph glyph-name="Ycircumflex" unicode="&#x176;" horiz-adv-x="831" 
d="M494 0h-158v514l-303 920h166l223 -705l225 705h152l-305 -920v-514zM313 1516h-139l176 204h142l178 -204h-140l-108 120z" />
    <glyph glyph-name="ycircumflex" unicode="&#x177;" horiz-adv-x="831" 
d="M494 0h-158v514l-303 920h166l223 -705l225 705h152l-305 -920v-514zM313 1516h-139l176 204h142l178 -204h-140l-108 120z" />
    <glyph glyph-name="Ydieresis" unicode="&#x178;" horiz-adv-x="831" 
d="M494 0h-158v514l-303 920h166l223 -705l225 705h152l-305 -920v-514zM616 1698v-185h-139v185h139zM362 1698v-185h-139v185h139z" />
    <glyph glyph-name="Zacute" unicode="&#x179;" horiz-adv-x="776" 
d="M711 0h-652v143l492 1145h-469v146h633v-144l-494 -1145h490v-145zM608 1731l-190 -211h-111l142 211h159z" />
    <glyph glyph-name="zacute" unicode="&#x17a;" horiz-adv-x="776" 
d="M711 0h-652v143l492 1145h-469v146h633v-144l-494 -1145h490v-145zM608 1731l-190 -211h-111l142 211h159z" />
    <glyph glyph-name="Zdotaccent" unicode="&#x17b;" horiz-adv-x="776" 
d="M711 0h-652v143l492 1145h-469v146h633v-144l-494 -1145h490v-145zM473 1704v-184h-139v184h139z" />
    <glyph glyph-name="zdotaccent" unicode="&#x17c;" horiz-adv-x="776" 
d="M711 0h-652v143l492 1145h-469v146h633v-144l-494 -1145h490v-145zM473 1704v-184h-139v184h139z" />
    <glyph glyph-name="Zcaron" unicode="&#x17d;" horiz-adv-x="776" 
d="M711 0h-652v143l492 1145h-469v146h633v-144l-494 -1145h490v-145zM289 1724l106 -122l111 122h139l-178 -206h-141l-176 206h139z" />
    <glyph glyph-name="zcaron" unicode="&#x17e;" horiz-adv-x="776" 
d="M711 0h-652v143l492 1145h-469v146h633v-144l-494 -1145h490v-145zM289 1724l106 -122l111 122h139l-178 -206h-141l-176 206h139z" />
    <glyph glyph-name="AEacute" unicode="&#x1fc;" horiz-adv-x="1198" 
d="M569 430v803l-256 -803h256zM1057 799v-144h-330v-510h406v-145h-564v291h-293l-92 -291h-151l446 1434h654v-146h-406v-489h330zM840 1729l-191 -211h-110l143 211h158z" />
    <glyph glyph-name="aeacute" unicode="&#x1fd;" horiz-adv-x="1198" 
d="M569 430v803l-256 -803h256zM1057 799v-144h-330v-510h406v-145h-564v291h-293l-92 -291h-151l446 1434h654v-146h-406v-489h330zM840 1729l-191 -211h-110l143 211h158z" />
    <glyph glyph-name="Oslashacute" unicode="&#x1fe;" horiz-adv-x="796" 
d="M397 131q170 0 170 207v723l-317 -846q41 -84 147 -84zM397 1303q-170 0 -170 -207v-727l318 848q-41 86 -148 86zM727 1087v-741q0 -164 -82 -262t-248 -98q-129 0 -209 63l-38 -102l-70 26l51 138q-61 92 -61 235v741q0 166 80.5 263.5t246.5 97.5q129 0 211 -64
l37 101l72 -27l-51 -135q61 -92 61 -236zM449 1731h159l-190 -211h-113z" />
    <glyph glyph-name="oslashacute" unicode="&#x1ff;" horiz-adv-x="796" 
d="M397 131q170 0 170 207v723l-317 -846q41 -84 147 -84zM397 1303q-170 0 -170 -207v-727l318 848q-41 86 -148 86zM727 1087v-741q0 -164 -82 -262t-248 -98q-129 0 -209 63l-38 -102l-70 26l51 138q-61 92 -61 235v741q0 166 80.5 263.5t246.5 97.5q129 0 211 -64
l37 101l72 -27l-51 -135q61 -92 61 -236zM449 1731h159l-190 -211h-113z" />
    <glyph glyph-name="uni0218" unicode="&#x218;" horiz-adv-x="761" 
d="M309 -248v180h135v-165l-71 -129h-60l47 114h-51zM377 131q168 0 168 205q0 80 -36 138t-89 108.5t-114.5 98.5t-150.5 143.5t-89 263.5t77.5 264t240.5 96t240.5 -97.5t77.5 -260.5v-39h-151v47q0 205 -164 205t-164 -203q0 -80 36 -139.5t89 -109.5t205 -166.5
t152 -338.5q0 -166 -79 -263t-245 -97t-244 97t-78 261v82h150v-90q0 -205 168 -205z" />
    <glyph glyph-name="uni0219" unicode="&#x219;" horiz-adv-x="761" 
d="M309 -248v180h135v-165l-71 -129h-60l47 114h-51zM377 131q168 0 168 205q0 80 -36 138t-89 108.5t-114.5 98.5t-150.5 143.5t-89 263.5t77.5 264t240.5 96t240.5 -97.5t77.5 -260.5v-39h-151v47q0 205 -164 205t-164 -203q0 -80 36 -139.5t89 -109.5t205 -166.5
t152 -338.5q0 -166 -79 -263t-245 -97t-244 97t-78 261v82h150v-90q0 -205 168 -205z" />
    <glyph glyph-name="uni021A" unicode="&#x21a;" horiz-adv-x="761" 
d="M313 -248v180h136v-165l-72 -129h-60l48 114h-52zM301 0v1288h-264v146h688v-146h-264v-1288h-160z" />
    <glyph glyph-name="uni021B" unicode="&#x21b;" horiz-adv-x="761" 
d="M313 -248v180h136v-165l-72 -129h-60l48 114h-52zM301 0v1288h-264v146h688v-146h-264v-1288h-160z" />
    <glyph glyph-name="uni0237" unicode="&#x237;" horiz-adv-x="522" 
d="M66 143h55q78 4 123 48.5t45 152.5v1090h157v-1080q0 -187 -81 -270t-235 -85q-75 -1 -89 1v145q20 -2 25 -2z" />
    <glyph glyph-name="uni02BC" unicode="&#x2bc;" horiz-adv-x="327" 
d="M92 1235v199h154v-183l-80 -196h-66l52 180h-60z" />
    <glyph glyph-name="circumflex" unicode="&#x2c6;" horiz-adv-x="512" 
d="M147 1532h-139l178 205h142l176 -205h-139l-109 121z" />
    <glyph glyph-name="caron" unicode="&#x2c7;" horiz-adv-x="512" 
d="M147 1737l109 -123l109 123h139l-176 -205h-142l-178 205h139z" />
    <glyph glyph-name="breve" unicode="&#x2d8;" horiz-adv-x="516" 
d="M257 1501q-101 0 -155.5 55.5t-56.5 151.5h96q7 -106 117 -106t117 106h98q-2 -96 -58.5 -151.5t-157.5 -55.5z" />
    <glyph glyph-name="dotaccent" unicode="&#x2d9;" horiz-adv-x="405" 
d="M272 1706v-184h-139v184h139z" />
    <glyph glyph-name="ring" unicode="&#x2da;" horiz-adv-x="479" 
d="M239 1741q-32 0 -53.5 -20.5t-21.5 -53.5t21.5 -53.5t53.5 -20.5t53 20.5t21 53.5t-21 53.5t-53 20.5zM239.5 1817q63.5 0 106.5 -43t43 -106.5t-43 -106.5t-106.5 -43t-107.5 43t-44 106.5t44 106.5t107.5 43z" />
    <glyph glyph-name="ogonek" unicode="&#x2db;" horiz-adv-x="464" 
d="M299.5 -203q37.5 0 73.5 19v-84q-55 -25 -127 -25q-154 0 -154 115q-4 105 135 184h70q-43 -33 -63.5 -74.5t-19.5 -73.5t24.5 -46.5t61 -14.5z" />
    <glyph glyph-name="tilde" unicode="&#x2dc;" horiz-adv-x="524" 
d="M367 1524q-43 0 -83 20.5t-60.5 29.5t-47.5 9q-55 0 -84 -59l-80 53q51 119 152 119q43 0 101.5 -30t86.5 -30q53 0 82 60l78 -54q-44 -118 -145 -118z" />
    <glyph glyph-name="hungarumlaut" unicode="&#x2dd;" horiz-adv-x="495" 
d="M477 1737l-164 -211h-100l117 211h147zM258 1737l-164 -211h-102l119 211h147z" />
    <glyph glyph-name="uni0401" unicode="&#x401;" horiz-adv-x="737" 
d="M592 799v-144h-350v-510h430v-145h-590v1434h590v-146h-430v-489h350zM573 1702v-184h-141v184h141zM317 1702v-184h-139v184h139z" />
    <glyph glyph-name="uni0410" unicode="&#x410;" horiz-adv-x="864" 
d="M264 426h320l-162 827zM244 289l-56 -289h-147l274 1434h232l274 -1434h-159l-56 289h-362z" />
    <glyph glyph-name="uni0411" unicode="&#x411;" horiz-adv-x="821" 
d="M418 145q88 0 129 46.5t41 146.5v178q0 104 -45 143t-133 39h-168v-553h176zM748 348q0 -348 -330 -348h-334v1434h604v-146h-446v-446h168q168 0 253 -81t85 -255v-158z" />
    <glyph glyph-name="uni0412" unicode="&#x412;" horiz-adv-x="802" 
d="M412 145q170 0 170 195v127q0 121 -48.5 167t-152.5 46h-139v-535h170zM365 825q96 0 144 39t48 152v84q0 96 -36 142t-122 46h-157v-463h123zM739 336q0 -336 -327 -336h-330v1434h321q168 0 240 -79t72 -239v-67q0 -115 -37 -185.5t-131 -99.5q192 -54 192 -307v-121z
" />
    <glyph glyph-name="uni0413" unicode="&#x413;" horiz-adv-x="729" 
d="M242 1288v-1288h-158v1434h571v-146h-413z" />
    <glyph glyph-name="uni0414" unicode="&#x414;" horiz-adv-x="1001" 
d="M674 141v1147h-266l-48 -936q-4 -78 -17 -127t-48 -84h379zM788 -197v197h-585v-197h-154v338h92q37 41 48.5 92.5t15.5 116.5l55 1084h576v-1293h108v-338h-156z" />
    <glyph glyph-name="uni0415" unicode="&#x415;" horiz-adv-x="737" 
d="M592 799v-144h-350v-510h430v-145h-590v1434h590v-146h-430v-489h350z" />
    <glyph glyph-name="uni0416" unicode="&#x416;" horiz-adv-x="1255" 
d="M707 0h-158v541l-74 137l-274 -678h-164l328 825l-320 609h160l344 -660v660h158v-660l346 660h159l-317 -605l326 -829h-164l-275 676l-75 -135v-541z" />
    <glyph glyph-name="uni0417" unicode="&#x417;" 
d="M391 1303q-168 0 -168 -207v-97h-147v91q0 166 76.5 262t242.5 96t245 -98.5t79 -262.5v-36q0 -233 -176 -297q176 -59 176 -295v-113q0 -164 -79 -262t-244 -98t-243.5 98t-78.5 262v139h149v-147q0 -207 168 -207q88 0 128 55.5t40 163.5v113q0 213 -184 213h-68v143
h76q80 0 128 51.5t48 145.5v65q0 111 -40 166.5t-128 55.5z" />
    <glyph glyph-name="uni0418" unicode="&#x418;" horiz-adv-x="837" 
d="M82 0v1434h141v-1069l148 452l209 617h178v-1434h-144v1141l-366 -1141h-166z" />
    <glyph glyph-name="uni0419" unicode="&#x419;" horiz-adv-x="839" 
d="M82 0v1434h141v-1069l135 419l222 650h178v-1434h-144v1141l-366 -1141h-166zM649 1729q0 -94 -58.5 -147.5t-162.5 -53.5t-160.5 53t-60.5 148h100q7 -105 89.5 -105t116.5 22.5t38 82.5h98z" />
    <glyph glyph-name="uni041A" unicode="&#x41a;" horiz-adv-x="837" 
d="M242 0h-160v1434h160v-693l381 693h161l-362 -654l375 -780h-164l-307 623l-84 -142v-481z" />
    <glyph glyph-name="uni041B" unicode="&#x41b;" horiz-adv-x="909" 
d="M39 -2v145q94 0 125 46t35 159l39 1086h583v-1434h-159v1288h-275l-33 -932q-9 -184 -71 -271t-217 -87h-27z" />
    <glyph glyph-name="uni041C" unicode="&#x41c;" horiz-adv-x="1071" 
d="M219 0h-139v1434h223l236 -1145l227 1145h223v-1434h-151v1153l-228 -1151h-153l-238 1141v-1143z" />
    <glyph glyph-name="uni041D" unicode="&#x41d;" horiz-adv-x="835" 
d="M242 645v-645h-160v1434h160v-646h352v646h160v-1434h-160v645h-352z" />
    <glyph glyph-name="uni041E" unicode="&#x41e;" horiz-adv-x="796" 
d="M397 1303q-170 0 -170 -207v-758q0 -207 170 -207t170 207v758q0 207 -170 207zM70 1087q0 166 80.5 263.5t246.5 97.5t248 -97.5t82 -263.5v-741q0 -164 -82 -262t-248 -98t-246.5 98t-80.5 262v741z" />
    <glyph glyph-name="uni041F" unicode="&#x41f;" horiz-adv-x="835" 
d="M242 1288v-1288h-160v1434h672v-1434h-160v1288h-352z" />
    <glyph glyph-name="uni0420" unicode="&#x420;" horiz-adv-x="759" 
d="M383 709q90 0 133 44t43 148v191q0 98 -38 147t-126 49h-153v-579h141zM395 1434q322 0 322 -351v-172q0 -172 -81 -259t-253 -87h-141v-565h-160v1434h313z" />
    <glyph glyph-name="uni0421" unicode="&#x421;" horiz-adv-x="778" 
d="M395 131q168 0 168 207v186h152v-178q0 -164 -79 -262t-244 -98t-243.5 98t-78.5 262v741q0 260 119.5 310.5t201.5 50.5q166 0 245 -98.5t79 -262.5v-129h-152v138q0 207 -168 207t-168 -207v-758q0 -207 168 -207z" />
    <glyph glyph-name="uni0422" unicode="&#x422;" horiz-adv-x="761" 
d="M301 0v1288h-264v146h688v-146h-264v-1288h-160z" />
    <glyph glyph-name="uni0423" unicode="&#x423;" horiz-adv-x="854" 
d="M512 315q-39 -172 -119 -248.5t-264 -68.5v143q92 -4 138 28t67 114l33 94l-330 1057h160l145 -498l98 -361l84 361l129 498h166z" />
    <glyph glyph-name="uni0424" unicode="&#x424;" horiz-adv-x="1165" 
d="M760 297q176 0 176 209v412q0 104 -42 155t-134 51h-101v-827h101zM401 1124q-92 0 -133 -51t-41 -155v-412q0 -104 41 -156.5t133 -52.5h101v827h-101zM760 1266q174 0 253 -93.5t79 -265.5v-391q0 -172 -79 -265t-253 -93h-101v-158h-157v158h-101q-174 0 -252.5 93
t-78.5 265v391q0 172 78.5 265.5t252.5 93.5h101v168h157v-168h101z" />
    <glyph glyph-name="uni0425" unicode="&#x425;" horiz-adv-x="890" 
d="M438 618l-239 -618h-152l289 739l-270 695h165l222 -574l223 574h149l-268 -695l287 -739h-168z" />
    <glyph glyph-name="uni0426" unicode="&#x426;" horiz-adv-x="931" 
d="M721 -193v193h-625v1434h158v-1289h352v1289h162v-1293h109v-334h-156z" />
    <glyph glyph-name="uni0427" unicode="&#x427;" horiz-adv-x="821" 
d="M580 635q-80 -113 -223 -113t-214 94.5t-71 245.5v572h159v-560q0 -92 45.5 -149t131.5 -57q147 0 172 168v598h157v-1434h-157v635z" />
    <glyph glyph-name="uni0428" unicode="&#x428;" horiz-adv-x="1189" 
d="M242 1434v-1289h274v1289h160v-1289h274v1289h158v-1434h-1026v1434h160z" />
    <glyph glyph-name="uni0429" unicode="&#x429;" horiz-adv-x="1273" 
d="M1065 -193v193h-983v1434h160v-1289h274v1289h158v-1289h276v1289h158v-1293h111v-334h-154z" />
    <glyph glyph-name="uni042A" unicode="&#x42a;" horiz-adv-x="897" 
d="M514 145q88 0 125 49.5t37 147.5v190q0 104 -42 148.5t-132 44.5h-144v-580h156zM836 350q0 -350 -322 -350h-313v1290h-181v144h338v-566h144q334 0 334 -346v-172z" />
    <glyph glyph-name="uni042B" unicode="&#x42b;" horiz-adv-x="1089" 
d="M395 145q88 0 126 49.5t38 147.5v190q0 104 -43 148.5t-133 44.5h-141v-580h153zM1008 1434v-1434h-158v1434h158zM717 350q0 -350 -322 -350h-313v1434h160v-566h141q172 0 253 -87t81 -259v-172z" />
    <glyph glyph-name="uni042C" unicode="&#x42c;" horiz-adv-x="780" 
d="M395 145q88 0 126 49.5t38 147.5v190q0 104 -43 148.5t-133 44.5h-141v-580h153zM717 350q0 -350 -322 -350h-313v1434h160v-566h141q172 0 253 -87t81 -259v-172z" />
    <glyph glyph-name="uni042D" unicode="&#x42d;" horiz-adv-x="778" 
d="M381 1303q-168 0 -168 -207v-115h-147v106q0 261 118.5 311t239.5 50t202 -95.5t81 -265.5v-741q0 -164 -79 -262t-243 -98t-243 98t-79 262v156h150v-164q0 -207 168 -207t168 207v332h-250v143h250v283q0 207 -168 207z" />
    <glyph glyph-name="uni042E" unicode="&#x42e;" horiz-adv-x="1177" 
d="M948 1096q0 207 -170 207t-170 -207v-758q0 -207 170 -207t170 207v758zM778 1448q166 0 247 -97.5t81 -263.5v-741q0 -164 -81 -262t-247 -98t-247.5 98t-81.5 262v299h-207v-645h-160v1434h160v-646h207v299q0 166 81.5 263.5t247.5 97.5z" />
    <glyph glyph-name="uni042F" unicode="&#x42f;" horiz-adv-x="806" 
d="M410 1288q-90 0 -128 -49t-38 -147v-138q0 -117 53 -156.5t147 -39.5h121v530h-155zM84 172v223q0 117 40 194t138 105q-176 57 -176 295v117q0 160 75 244t245 84h319v-1434h-160v612h-112q-100 0 -154.5 -46t-54.5 -167v-225q0 -114 -27 -174h-162q29 60 29 172z" />
    <glyph glyph-name="uni0430" unicode="&#x430;" horiz-adv-x="864" 
d="M264 426h320l-162 827zM244 289l-56 -289h-147l274 1434h232l274 -1434h-159l-56 289h-362z" />
    <glyph glyph-name="uni0431" unicode="&#x431;" horiz-adv-x="821" 
d="M418 145q88 0 129 46.5t41 146.5v178q0 104 -45 143t-133 39h-168v-553h176zM748 348q0 -348 -330 -348h-334v1434h604v-146h-446v-446h168q168 0 253 -81t85 -255v-158z" />
    <glyph glyph-name="uni0432" unicode="&#x432;" horiz-adv-x="802" 
d="M412 145q170 0 170 195v127q0 121 -48.5 167t-152.5 46h-139v-535h170zM365 825q96 0 144 39t48 152v84q0 96 -36 142t-122 46h-157v-463h123zM739 336q0 -336 -327 -336h-330v1434h321q168 0 240 -79t72 -239v-67q0 -115 -37 -185.5t-131 -99.5q192 -54 192 -307v-121z
" />
    <glyph glyph-name="uni0433" unicode="&#x433;" horiz-adv-x="729" 
d="M242 1288v-1288h-158v1434h571v-146h-413z" />
    <glyph glyph-name="uni0434" unicode="&#x434;" horiz-adv-x="1001" 
d="M674 141v1147h-266l-48 -936q-4 -78 -17 -127t-48 -84h379zM788 -197v197h-585v-197h-154v338h92q37 41 48.5 92.5t15.5 116.5l55 1084h576v-1293h108v-338h-156z" />
    <glyph glyph-name="uni0435" unicode="&#x435;" horiz-adv-x="737" 
d="M592 799v-144h-350v-510h430v-145h-590v1434h590v-146h-430v-489h350z" />
    <glyph glyph-name="uni0436" unicode="&#x436;" horiz-adv-x="1255" 
d="M707 0h-158v541l-74 137l-274 -678h-164l328 825l-320 609h160l344 -660v660h158v-660l346 660h159l-317 -605l326 -829h-164l-275 676l-75 -135v-541z" />
    <glyph glyph-name="uni0437" unicode="&#x437;" 
d="M391 1303q-168 0 -168 -207v-97h-147v91q0 166 76.5 262t242.5 96t245 -98.5t79 -262.5v-36q0 -233 -176 -297q176 -59 176 -295v-113q0 -164 -79 -262t-244 -98t-243.5 98t-78.5 262v139h149v-147q0 -207 168 -207q88 0 128 55.5t40 163.5v113q0 213 -184 213h-68v143
h76q80 0 128 51.5t48 145.5v65q0 111 -40 166.5t-128 55.5z" />
    <glyph glyph-name="uni0438" unicode="&#x438;" horiz-adv-x="837" 
d="M82 0v1434h141v-1069l127 395l230 674h178v-1434h-144v1141l-366 -1141h-166z" />
    <glyph glyph-name="uni0439" unicode="&#x439;" horiz-adv-x="839" 
d="M82 0v1434h141v-1069l133 413l224 656h178v-1434h-144v1141l-366 -1141h-166zM460.5 1622q83.5 0 90.5 104h98q0 -94 -58.5 -147t-162.5 -53t-160.5 53t-60.5 147h100q4 -59 37 -81.5t116.5 -22.5z" />
    <glyph glyph-name="uni043A" unicode="&#x43a;" horiz-adv-x="837" 
d="M242 0h-160v1434h160v-693l381 693h161l-362 -654l375 -780h-164l-307 623l-84 -142v-481z" />
    <glyph glyph-name="uni043B" unicode="&#x43b;" horiz-adv-x="909" 
d="M39 -2v145q94 0 125 46t35 159l39 1086h583v-1434h-159v1288h-275l-33 -932q-9 -184 -71 -271t-217 -87h-27z" />
    <glyph glyph-name="uni043C" unicode="&#x43c;" horiz-adv-x="1071" 
d="M219 0h-139v1434h223l236 -1145l227 1145h223v-1434h-151v1153l-228 -1151h-153l-238 1141v-1143z" />
    <glyph glyph-name="uni043D" unicode="&#x43d;" horiz-adv-x="835" 
d="M242 645v-645h-160v1434h160v-646h352v646h160v-1434h-160v645h-352z" />
    <glyph glyph-name="uni043E" unicode="&#x43e;" horiz-adv-x="796" 
d="M397 1303q-170 0 -170 -207v-758q0 -207 170 -207t170 207v758q0 207 -170 207zM70 1087q0 166 80.5 263.5t246.5 97.5t248 -97.5t82 -263.5v-741q0 -164 -82 -262t-248 -98t-246.5 98t-80.5 262v741z" />
    <glyph glyph-name="uni043F" unicode="&#x43f;" horiz-adv-x="835" 
d="M242 1288v-1288h-160v1434h672v-1434h-160v1288h-352z" />
    <glyph glyph-name="uni0440" unicode="&#x440;" horiz-adv-x="759" 
d="M383 709q90 0 133 44t43 148v191q0 98 -38 147t-126 49h-153v-579h141zM395 1434q322 0 322 -351v-172q0 -172 -81 -259t-253 -87h-141v-565h-160v1434h313z" />
    <glyph glyph-name="uni0441" unicode="&#x441;" horiz-adv-x="778" 
d="M395 131q168 0 168 207v186h152v-178q0 -164 -79 -262t-244 -98t-243.5 98t-78.5 262v741q0 260 119.5 310.5t201.5 50.5q166 0 245 -98.5t79 -262.5v-129h-152v138q0 207 -168 207t-168 -207v-758q0 -207 168 -207z" />
    <glyph glyph-name="uni0442" unicode="&#x442;" horiz-adv-x="761" 
d="M301 0v1288h-264v146h688v-146h-264v-1288h-160z" />
    <glyph glyph-name="uni0443" unicode="&#x443;" horiz-adv-x="854" 
d="M512 315q-39 -172 -119 -248.5t-264 -68.5v143q92 -4 138 28t67 114l33 94l-330 1057h160l145 -498l98 -361l84 361l129 498h166z" />
    <glyph glyph-name="uni0444" unicode="&#x444;" horiz-adv-x="1165" 
d="M760 297q176 0 176 209v412q0 104 -42 155t-134 51h-101v-827h101zM401 1124q-92 0 -133 -51t-41 -155v-412q0 -104 41 -156.5t133 -52.5h101v827h-101zM760 1266q174 0 253 -93.5t79 -265.5v-391q0 -172 -79 -265t-253 -93h-101v-158h-157v158h-101q-174 0 -252.5 93
t-78.5 265v391q0 172 78.5 265.5t252.5 93.5h101v168h157v-168h101z" />
    <glyph glyph-name="uni0445" unicode="&#x445;" horiz-adv-x="890" 
d="M438 618l-239 -618h-152l289 739l-270 695h165l222 -574l223 574h149l-268 -695l287 -739h-168z" />
    <glyph glyph-name="uni0446" unicode="&#x446;" horiz-adv-x="931" 
d="M721 -193v193h-625v1434h158v-1289h352v1289h162v-1293h109v-334h-156z" />
    <glyph glyph-name="uni0447" unicode="&#x447;" horiz-adv-x="821" 
d="M580 635q-80 -113 -223 -113t-214 94.5t-71 245.5v572h159v-560q0 -92 45.5 -149t131.5 -57q147 0 172 168v598h157v-1434h-157v635z" />
    <glyph glyph-name="uni0448" unicode="&#x448;" horiz-adv-x="1189" 
d="M242 1434v-1289h274v1289h160v-1289h274v1289h158v-1434h-1026v1434h160z" />
    <glyph glyph-name="uni0449" unicode="&#x449;" horiz-adv-x="1273" 
d="M1065 -193v193h-983v1434h160v-1289h274v1289h158v-1289h276v1289h158v-1293h111v-334h-154z" />
    <glyph glyph-name="uni044A" unicode="&#x44a;" horiz-adv-x="897" 
d="M514 145q88 0 125 49.5t37 147.5v190q0 104 -42 148.5t-132 44.5h-144v-580h156zM836 350q0 -350 -322 -350h-313v1290h-181v144h338v-566h144q334 0 334 -346v-172z" />
    <glyph glyph-name="uni044B" unicode="&#x44b;" horiz-adv-x="1089" 
d="M395 145q88 0 126 49.5t38 147.5v190q0 104 -43 148.5t-133 44.5h-141v-580h153zM1008 1434v-1434h-158v1434h158zM717 350q0 -350 -322 -350h-313v1434h160v-566h141q172 0 253 -87t81 -259v-172z" />
    <glyph glyph-name="uni044C" unicode="&#x44c;" horiz-adv-x="780" 
d="M395 145q88 0 126 49.5t38 147.5v190q0 104 -43 148.5t-133 44.5h-141v-580h153zM717 350q0 -350 -322 -350h-313v1434h160v-566h141q172 0 253 -87t81 -259v-172z" />
    <glyph glyph-name="uni044D" unicode="&#x44d;" horiz-adv-x="778" 
d="M381 1303q-168 0 -168 -207v-115h-147v106q0 261 118.5 311t239.5 50t202 -95.5t81 -265.5v-741q0 -164 -79 -262t-243 -98t-243 98t-79 262v156h150v-164q0 -207 168 -207t168 207v332h-250v143h250v283q0 207 -168 207z" />
    <glyph glyph-name="uni044E" unicode="&#x44e;" horiz-adv-x="1177" 
d="M948 1096q0 207 -170 207t-170 -207v-758q0 -207 170 -207t170 207v758zM778 1448q166 0 247 -97.5t81 -263.5v-741q0 -164 -81 -262t-247 -98t-247.5 98t-81.5 262v299h-207v-645h-160v1434h160v-646h207v299q0 166 81.5 263.5t247.5 97.5z" />
    <glyph glyph-name="uni044F" unicode="&#x44f;" horiz-adv-x="806" 
d="M410 1288q-90 0 -128 -49t-38 -147v-138q0 -117 53 -156.5t147 -39.5h121v530h-155zM84 172v223q0 117 40 194t138 105q-176 57 -176 295v117q0 160 75 244t245 84h319v-1434h-160v612h-112q-100 0 -154.5 -46t-54.5 -167v-225q0 -114 -27 -174h-162q29 60 29 172z" />
    <glyph glyph-name="uni0451" unicode="&#x451;" horiz-adv-x="737" 
d="M592 799v-144h-350v-510h430v-145h-590v1434h590v-146h-430v-489h350zM573 1702v-184h-141v184h141zM317 1702v-184h-139v184h139z" />
    <glyph glyph-name="uni1E02" unicode="&#x1e02;" horiz-adv-x="802" 
d="M412 145q170 0 170 195v127q0 121 -48.5 167t-152.5 46h-139v-535h170zM365 825q96 0 144 39t48 152v84q0 96 -36 142t-122 46h-157v-463h123zM739 336q0 -336 -327 -336h-330v1434h321q168 0 240 -79t72 -239v-67q0 -115 -37 -185.5t-131 -99.5q192 -54 192 -307v-121z
M434 1700v-184h-139v184h139z" />
    <glyph glyph-name="uni1E03" unicode="&#x1e03;" horiz-adv-x="802" 
d="M412 145q170 0 170 195v127q0 121 -48.5 167t-152.5 46h-139v-535h170zM365 825q96 0 144 39t48 152v84q0 96 -36 142t-122 46h-157v-463h123zM739 336q0 -336 -327 -336h-330v1434h321q168 0 240 -79t72 -239v-67q0 -115 -37 -185.5t-131 -99.5q192 -54 192 -307v-121z
M434 1700v-184h-139v184h139z" />
    <glyph glyph-name="uni1E0A" unicode="&#x1e0a;" horiz-adv-x="811" 
d="M586 1085q0 203 -172 203h-172v-1143h174q170 0 170 203v737zM418 1434q168 0 246.5 -95.5t78.5 -261.5v-723q0 -166 -78.5 -260t-246.5 -94h-336v1434h336zM449 1700v-184h-140v184h140z" />
    <glyph glyph-name="uni1E0B" unicode="&#x1e0b;" horiz-adv-x="811" 
d="M586 1085q0 203 -172 203h-172v-1143h174q170 0 170 203v737zM418 1434q168 0 246.5 -95.5t78.5 -261.5v-723q0 -166 -78.5 -260t-246.5 -94h-336v1434h336zM449 1700v-184h-140v184h140z" />
    <glyph glyph-name="uni1E1E" unicode="&#x1e1e;" horiz-adv-x="696" 
d="M571 766v-145h-329v-621h-160v1434h569v-146h-409v-522h329zM432 1698v-185h-139v185h139z" />
    <glyph glyph-name="uni1E1F" unicode="&#x1e1f;" horiz-adv-x="696" 
d="M571 766v-145h-329v-621h-160v1434h569v-146h-409v-522h329zM438 1700v-184h-139v184h139z" />
    <glyph glyph-name="uni1E40" unicode="&#x1e40;" horiz-adv-x="1071" 
d="M219 0h-139v1434h223l236 -1145l227 1145h223v-1434h-151v1153l-228 -1151h-153l-238 1141v-1143zM604 1704v-186h-139v186h139z" />
    <glyph glyph-name="uni1E41" unicode="&#x1e41;" horiz-adv-x="1071" 
d="M219 0h-139v1434h223l236 -1145l227 1145h223v-1434h-151v1153l-228 -1151h-153l-238 1141v-1143zM604 1704v-184h-139v184h139z" />
    <glyph glyph-name="uni1E56" unicode="&#x1e56;" horiz-adv-x="759" 
d="M383 709q90 0 133 44t43 148v191q0 98 -38 147t-126 49h-153v-579h141zM395 1434q322 0 322 -351v-172q0 -172 -81 -259t-253 -87h-141v-565h-160v1434h313zM438 1700v-184h-139v184h139z" />
    <glyph glyph-name="uni1E57" unicode="&#x1e57;" horiz-adv-x="759" 
d="M383 709q90 0 133 44t43 148v191q0 98 -38 147t-126 49h-153v-579h141zM395 1434q322 0 322 -351v-172q0 -172 -81 -259t-253 -87h-141v-565h-160v1434h313zM444 1700v-184h-139v184h139z" />
    <glyph glyph-name="uni1E60" unicode="&#x1e60;" horiz-adv-x="761" 
d="M377 131q168 0 168 205q0 80 -36 138t-89 108.5t-114.5 98.5t-150.5 143.5t-89 263.5t77.5 264t240.5 96t240.5 -97.5t77.5 -260.5v-39h-151v47q0 205 -164 205t-164 -203q0 -80 36 -139.5t89 -109.5t205 -166.5t152 -338.5q0 -166 -79 -263t-245 -97t-244 97t-78 261v82
h150v-90q0 -205 168 -205zM451 1700v-184h-140v184h140z" />
    <glyph glyph-name="uni1E61" unicode="&#x1e61;" horiz-adv-x="761" 
d="M377 131q168 0 168 205q0 80 -36 138t-89 108.5t-114.5 98.5t-150.5 143.5t-89 263.5t77.5 264t240.5 96t240.5 -97.5t77.5 -260.5v-39h-151v47q0 205 -164 205t-164 -203q0 -80 36 -139.5t89 -109.5t205 -166.5t152 -338.5q0 -166 -79 -263t-245 -97t-244 97t-78 261v82
h150v-90q0 -205 168 -205zM457 1706v-184h-140v184h140z" />
    <glyph glyph-name="uni1E6A" unicode="&#x1e6a;" horiz-adv-x="761" 
d="M301 0v1288h-264v146h688v-146h-264v-1288h-160zM451 1700v-184h-140v184h140z" />
    <glyph glyph-name="uni1E6B" unicode="&#x1e6b;" horiz-adv-x="761" 
d="M299 0v1288h-264v146h688v-146h-264v-1288h-160zM449 1700v-184h-140v184h140z" />
    <glyph glyph-name="Wgrave" unicode="&#x1e80;" horiz-adv-x="1193" 
d="M463 0h-219l-197 1434h156l168 -1221l159 1219h158l158 -1221l162 1223h139l-195 -1434h-211l-137 973zM567 1731l142 -211h-117l-191 211h166z" />
    <glyph glyph-name="wgrave" unicode="&#x1e81;" horiz-adv-x="1193" 
d="M463 0h-219l-197 1434h156l168 -1221l159 1219h158l158 -1221l162 1223h139l-195 -1434h-211l-137 973zM567 1731l142 -211h-117l-191 211h166z" />
    <glyph glyph-name="Wacute" unicode="&#x1e82;" horiz-adv-x="1193" 
d="M463 0h-219l-197 1434h156l168 -1221l159 1219h158l158 -1221l162 1223h139l-195 -1434h-211l-137 973zM801 1724l-191 -211h-112l143 211h160z" />
    <glyph glyph-name="wacute" unicode="&#x1e83;" horiz-adv-x="1193" 
d="M463 0h-219l-197 1434h156l168 -1221l159 1219h158l158 -1221l162 1223h139l-195 -1434h-211l-137 973zM801 1724l-191 -211h-112l143 211h160z" />
    <glyph glyph-name="Wdieresis" unicode="&#x1e84;" horiz-adv-x="1193" 
d="M463 0h-219l-197 1434h156l168 -1221l159 1219h158l158 -1221l162 1223h139l-195 -1434h-211l-137 973zM797 1702v-184h-140v184h140zM543 1702v-184h-140v184h140z" />
    <glyph glyph-name="wdieresis" unicode="&#x1e85;" horiz-adv-x="1193" 
d="M463 0h-219l-197 1434h156l168 -1221l159 1219h158l158 -1221l162 1223h139l-195 -1434h-211l-137 973zM797 1702v-184h-140v184h140zM543 1702v-184h-140v184h140z" />
    <glyph glyph-name="Ygrave" unicode="&#x1ef2;" horiz-adv-x="831" 
d="M494 0h-158v514l-303 920h166l223 -705l225 705h152l-305 -920v-514zM381 1731l141 -211h-116l-191 211h166z" />
    <glyph glyph-name="ygrave" unicode="&#x1ef3;" horiz-adv-x="831" 
d="M494 0h-158v514l-303 920h166l223 -705l225 705h152l-305 -920v-514zM381 1731l141 -211h-116l-191 211h166z" />
    <glyph glyph-name="figuredash" unicode="&#x2012;" horiz-adv-x="870" 
d="M27 782h817v-131h-817v131z" />
    <glyph glyph-name="endash" unicode="&#x2013;" horiz-adv-x="937" 
d="M27 782h884v-131h-884v131z" />
    <glyph glyph-name="emdash" unicode="&#x2014;" horiz-adv-x="1705" 
d="M27 782h1652v-131h-1652v131z" />
    <glyph glyph-name="quoteleft" unicode="&#x2018;" horiz-adv-x="327" 
d="M236 1253v-198h-154v184l78 195h67l-51 -181h60z" />
    <glyph glyph-name="quoteright" unicode="&#x2019;" horiz-adv-x="327" 
d="M92 1235v199h154v-183l-80 -196h-66l52 180h-60z" />
    <glyph glyph-name="quotesinglbase" unicode="&#x201a;" horiz-adv-x="327" 
d="M92 0v199h154v-185l-80 -194h-66l52 180h-60z" />
    <glyph glyph-name="quotedblleft" unicode="&#x201c;" horiz-adv-x="555" 
d="M463 1253v-198h-152v184l78 195h66l-49 -181h57zM236 1253v-198h-154v184l78 195h67l-51 -181h60z" />
    <glyph glyph-name="quotedblright" unicode="&#x201d;" horiz-adv-x="555" 
d="M309 1235v199h154v-185l-78 -194h-68l52 180h-60zM82 1235v199h151v-185l-77 -194h-66l49 180h-57z" />
    <glyph glyph-name="quotedblbase" unicode="&#x201e;" horiz-adv-x="561" 
d="M326 0v199h153v-185l-78 -194h-67l51 180h-59zM92 0v199h154v-185l-80 -194h-66l52 180h-60z" />
    <glyph glyph-name="dagger" unicode="&#x2020;" horiz-adv-x="806" 
d="M469 1051h279v-125h-279v-1059h-131v1059h-277v125h277v383h131v-383z" />
    <glyph glyph-name="daggerdbl" unicode="&#x2021;" horiz-adv-x="806" 
d="M469 1051h279v-125h-279v-549h279v-125h-279v-385h-131v385h-277v125h277v549h-277v125h277v383h131v-383z" />
    <glyph glyph-name="bullet" unicode="&#x2022;" horiz-adv-x="671" 
d="M336 932q45 0 84 -17.5t67.5 -46t46 -67.5t17.5 -84t-17.5 -84t-46 -68.5t-67.5 -46t-84 -16.5t-84 16.5t-68.5 46t-46 68.5t-16.5 84t16.5 84t46 67.5t68.5 46t84 17.5z" />
    <glyph glyph-name="ellipsis" unicode="&#x2026;" horiz-adv-x="776" 
d="M694 199v-199h-153v199h153zM465 199v-199h-154v199h154zM236 199v-199h-154v199h154z" />
    <glyph glyph-name="perthousand" unicode="&#x2030;" horiz-adv-x="1775" 
d="M1599 682q0 129 -101 129t-101 -129v-465q0 -131 101 -131t101 131v465zM1085 682q0 129 -102 129t-102 -129v-465q0 -131 102 -131t102 131v465zM1498 905q105 0 154.5 -62.5t49.5 -166.5v-451q0 -104 -49 -167.5t-155 -63.5t-156 63.5t-50 167.5v451q0 104 50.5 166.5
t155.5 62.5zM984 905q105 0 154.5 -62.5t49.5 -166.5v-451q0 -104 -49 -167.5t-155 -63.5t-156 63.5t-50 167.5v451q0 104 50.5 166.5t155.5 62.5zM381 1217q-1 131 -103 131t-102 -131v-467q0 -129 102 -129t103 129v467zM956 1434l-565 -1434h-96l565 1434h96zM278.5 1442
q104.5 0 154.5 -63.5t50 -168.5v-452q0 -104 -50 -168t-154.5 -64t-154.5 63.5t-50 168.5v452q0 104 50 168t154.5 64z" />
    <glyph glyph-name="guilsinglleft" unicode="&#x2039;" horiz-adv-x="374" 
d="M49 719l127 526h152l-127 -526l127 -549h-152z" />
    <glyph glyph-name="guilsinglright" unicode="&#x203a;" horiz-adv-x="374" 
d="M174 719l-125 526h150l129 -526l-129 -547h-150z" />
    <glyph glyph-name="fraction" unicode="&#x2044;" horiz-adv-x="335" 
d="M500 1434l-566 -1434h-96l565 1434h97z" />
    <glyph glyph-name="zerosuperior" unicode="&#x2070;" horiz-adv-x="567" 
d="M282.5 1544q-106.5 0 -106.5 -129v-483q0 -129 106.5 -129t106.5 129v483q0 129 -106.5 129zM74 1407q0 106 51 168.5t157.5 62.5t159 -62.5t52.5 -168.5v-467q0 -106 -52.5 -168.5t-159 -62.5t-157.5 62.5t-51 168.5v467z" />
    <glyph glyph-name="foursuperior" unicode="&#x2074;" horiz-adv-x="579" 
d="M352 995v435l-198 -435h198zM455 899v-180h-103v180h-293v96l283 633h113v-633h71v-96h-71z" />
    <glyph glyph-name="fivesuperior" unicode="&#x2075;" horiz-adv-x="563" 
d="M385 1106q0 129 -104 129q-39 0 -68 -23.5t-33 -72.5v-21h-98l27 508h358v-94h-268l-13 -272q42 72 132 72q170 -1 171 -218v-178q0 -104 -50 -167.5t-155 -63.5t-155.5 63t-50.5 168v61h98v-67q0 -129 104.5 -129t104.5 129v176z" />
    <glyph glyph-name="sixsuperior" unicode="&#x2076;" horiz-adv-x="567" 
d="M393 1069q-1 131 -107 131t-106 -131v-137q0 -129 106 -129t107 129v137zM76 1403q0 235 211 235q106 0 156.5 -62.5t50.5 -166.5v-16h-99v22q0 129 -104 129q-59 0 -85 -35.5t-26 -109.5v-197q42 92 138 92q178 0 178 -217v-137q0 -104 -51.5 -167.5t-158 -63.5
t-158.5 63.5t-52 167.5v463z" />
    <glyph glyph-name="sevensuperior" unicode="&#x2077;" horiz-adv-x="563" 
d="M76 1534v94h413v-90l-235 -819h-102l231 815h-307z" />
    <glyph glyph-name="eightsuperior" unicode="&#x2078;" horiz-adv-x="571" 
d="M284.5 1145q-112.5 0 -112.5 -129v-78q0 -135 112.5 -135t112.5 135v78q0 129 -112.5 129zM397 1409q0 135 -112.5 135t-112.5 -135v-43q0 -127 112 -127t113 127v43zM70 1382v31q0 104 55.5 164.5t160.5 60.5t160.5 -60t55.5 -165v-31q0 -143 -101 -186
q101 -48 101 -192v-68q0 -104 -54.5 -165.5t-161.5 -61.5t-161.5 61t-54.5 166v68q0 146 98 192q-98 44 -98 186z" />
    <glyph glyph-name="ninesuperior" unicode="&#x2079;" horiz-adv-x="567" 
d="M387 1415q0 129 -106.5 129t-106.5 -129v-137q0 -131 106.5 -131t106.5 131v137zM170 932q0 -129 106 -129q111 0 111 145v197q-41 -92 -137 -92q-178 0 -178 217v137q0 104 51 167.5t157.5 63.5t157.5 -63.5t51 -167.5v-463q0 -235 -210 -235q-104 0 -155.5 62.5
t-51.5 166.5v16h98v-22z" />
    <glyph glyph-name="zeroinferior" unicode="&#x2080;" horiz-adv-x="567" 
d="M282.5 692q-106.5 0 -106.5 -129v-483q0 -129 106.5 -129t106.5 129v483q0 129 -106.5 129zM74 555q0 106 51 168.5t157.5 62.5t159 -62t52.5 -169v-467q0 -106 -52.5 -168.5t-159 -62.5t-157.5 62.5t-51 168.5v467z" />
    <glyph glyph-name="oneinferior" unicode="&#x2081;" horiz-adv-x="387" 
d="M289 776v-909h-103v751q-51 -31 -125 -36v75q74 2 106 37t50 82h72z" />
    <glyph glyph-name="twoinferior" unicode="&#x2082;" horiz-adv-x="563" 
d="M393 555q1 139 -105 139t-106 -133v-78h-98v72q0 104 49 168.5t157 64.5t157 -63t49 -151t-23.5 -142.5t-58.5 -102.5t-75 -90t-98 -112t-55 -158v-8h299v-94h-401v78q0 125 57.5 200.5t97.5 116.5t97 113.5t57 179.5z" />
    <glyph glyph-name="threeinferior" unicode="&#x2083;" horiz-adv-x="563" 
d="M385 553q1 139 -105 139t-106 -129v-47h-98v39q0 106 50.5 168.5t155.5 62.5t155 -62t50 -169v-23q0 -143 -106 -186q106 -44 106 -188v-70q0 -106 -50 -168.5t-155 -62.5t-155.5 62.5t-50.5 168.5v62h98v-70q0 -129 106 -129t105 139v70q0 133 -113 133h-55v94h59
q49 0 79 33t30 92v41z" />
    <glyph glyph-name="fourinferior" unicode="&#x2084;" horiz-adv-x="579" 
d="M352 139v434l-198 -434h198zM455 45v-182h-103v182h-293v94l283 633h113v-633h71v-94h-71z" />
    <glyph glyph-name="fiveinferior" unicode="&#x2085;" horiz-adv-x="563" 
d="M489 266v-180q0 -104 -50 -166.5t-155 -62.5t-155.5 62.5t-50.5 166.5v64h98v-68q0 -129 104.5 -129t104.5 129v176q0 129 -104 129q-39 0 -68 -23.5t-33 -72.5v-21h-98l27 508h358v-94h-268l-13 -274q43 72 136 71q167 0 167 -215z" />
    <glyph glyph-name="sixinferior" unicode="&#x2086;" horiz-adv-x="567" 
d="M393 217q-1 131 -107 131t-106 -131v-137q0 -129 106 -129t107 129v137zM76 551q0 235 211 235q106 0 156.5 -62t50.5 -167v-16h-99v22q0 129 -104 129q-59 0 -85 -35.5t-26 -109.5v-197q42 92 138 92q178 0 178 -217v-137q0 -104 -51.5 -167.5t-158 -63.5t-158.5 63.5
t-52 167.5v463z" />
    <glyph glyph-name="seveninferior" unicode="&#x2087;" horiz-adv-x="563" 
d="M76 686v94h413v-90l-235 -819h-102l231 815h-307z" />
    <glyph glyph-name="eightinferior" unicode="&#x2088;" horiz-adv-x="571" 
d="M284.5 293q-112.5 0 -112.5 -129v-78q0 -135 112.5 -135t112.5 135v78q0 129 -112.5 129zM397 557q0 135 -112.5 135t-112.5 -135v-43q0 -127 112 -127t113 127v43zM70 530v31q0 104 55.5 164.5t160.5 60.5t160.5 -60t55.5 -165v-31q0 -143 -101 -186q101 -48 101 -192
v-68q0 -104 -54.5 -165.5t-161.5 -61.5t-161.5 61.5t-54.5 165.5v68q0 146 98 192q-98 44 -98 186z" />
    <glyph glyph-name="nineinferior" unicode="&#x2089;" horiz-adv-x="567" 
d="M387 563q0 129 -106.5 129t-106.5 -129v-137q0 -131 106.5 -131t106.5 131v137zM170 80q0 -129 106 -129q111 0 111 145v197q-41 -92 -137 -92q-178 0 -178 217v137q0 104 51 167.5t157.5 63.5t157.5 -63.5t51 -167.5v-463q0 -235 -210 -235q-104 0 -155.5 62.5
t-51.5 166.5v16h98v-22z" />
    <glyph glyph-name="Euro" unicode="&#x20ac;" horiz-adv-x="813" 
d="M436 131q162 0 162 207v111h150v-103q0 -162 -76 -261t-240 -99t-239.5 99t-75.5 261v221h-90v84h90v142h-90v81h90v213q0 261 116.5 311t237 50t199 -95t78.5 -266v-92h-150v101q0 207 -162 207t-162 -207v-222h357v-81h-357v-142h357v-84h-357v-229q0 -207 162 -207z
" />
    <glyph glyph-name="uni20B9" unicode="&#x20b9;" horiz-adv-x="794" 
d="M731 1100v-125h-125q-10 -143 -100 -228t-238 -85h-35l496 -662h-172l-494 662v122h164q220 0 224 191h-385v125h385q0 102 -56.5 155.5t-167.5 53.5h-161v125h665v-125h-229q94 -59 104 -209h125z" />
    <glyph glyph-name="uni2117" unicode="&#x2117;" horiz-adv-x="1519" 
d="M791 684q66 0 95 34t29 105v70q0 66 -25.5 103.5t-90.5 37.5h-107v-350h99zM805 1137q119 0 170 -60.5t51 -171.5v-94q0 -117 -54 -174t-175 -57h-105v-320h-110v877h223zM760 1339q-129 0 -239.5 -47t-190.5 -130t-125 -197.5t-45 -247.5t45 -248t125 -198t190.5 -130
t239.5 -47t239.5 47t190.5 130t125 198t45 248t-45 247.5t-125 197.5t-190.5 130t-239.5 47zM759.5 1442q151.5 0 280.5 -54.5t223.5 -151.5t147.5 -230.5t53 -289t-53 -288.5t-147.5 -229.5t-223.5 -151.5t-280.5 -55t-280.5 55t-223 151.5t-147.5 229.5t-53.5 288.5
t53.5 289t147.5 230.5t223 151.5t280.5 54.5z" />
    <glyph glyph-name="trademark" unicode="&#x2122;" horiz-adv-x="1193" 
d="M645 705h-92v729h143l150 -570l143 570h144v-729h-99v575l-141 -571h-98l-150 567v-571zM193 705v634h-168v95h436v-95h-166v-634h-102z" />
    <glyph glyph-name="uni2153" unicode="&#x2153;" horiz-adv-x="1220" 
d="M1040 686q0 139 -104 139t-105 -129v-47h-98v39q0 106 49 169t155.5 63t157 -62.5t50.5 -169.5v-22q0 -143 -109 -187q109 -44 109 -188v-70q0 -106 -50.5 -168.5t-157 -62.5t-155.5 62.5t-49 168.5v62h98v-70q1 -129 105 -129t104 139v70q0 133 -112 133h-56v94h60
q51 0 80.5 33t27.5 92v41zM899 1434l-565 -1434h-96l565 1434h96zM344 1434v-910h-102v752q-51 -31 -125 -37v76q74 2 105.5 36.5t49.5 82.5h72z" />
    <glyph glyph-name="uni2154" unicode="&#x2154;" horiz-adv-x="1265" 
d="M981 825q-104 0 -104 -129v-47h-99v39q0 106 50.5 169t155.5 63t155.5 -62.5t50.5 -169.5v-22q0 -143 -109 -187q109 -44 109 -188v-70q0 -106 -50 -168.5t-156 -62.5t-156 62.5t-50 168.5v62h99v-70q0 -129 104 -129t104 139v70q0 133 -112 133h-55v94h59q51 0 80.5 33
t27.5 92v41q0 139 -104 139zM410 0h-97l566 1434h96zM182 1217v-78h-98v73q0 104 49 168t157 64t157 -63t49 -151t-23.5 -143t-57.5 -102t-75 -90t-97.5 -113t-56.5 -155v-11h299v-94h-401v78q0 126 57.5 202.5t97.5 117.5t97 112t57 178q0 139 -106 140q-105 0 -105 -133z
" />
    <glyph glyph-name="oneeighth" unicode="&#x215b;" horiz-adv-x="1230" 
d="M946.5 426q-112.5 0 -112.5 -129v-78q0 -135 112.5 -135t112.5 135v78q0 129 -112.5 129zM1059 690q0 135 -112.5 135t-112.5 -135v-43q0 -127 112 -127t113 127v43zM729 664v30q0 104 55.5 165t160.5 61t160.5 -60.5t55.5 -165.5v-30q0 -143 -98 -187q98 -46 98 -192
v-68q0 -104 -54 -165.5t-162 -61.5t-162 61.5t-54 165.5v68q0 147 100 192q-100 43 -100 187zM238 0l565 1434h96l-565 -1434h-96zM344 1434v-910h-102v752q-51 -31 -125 -37v76q74 2 105.5 36.5t49.5 82.5h72z" />
    <glyph glyph-name="threeeighths" unicode="&#x215c;" horiz-adv-x="1282" 
d="M997.5 426q-112.5 0 -112.5 -129v-78q0 -135 112.5 -135t112.5 135v78q0 129 -112.5 129zM1110 690q0 135 -112.5 135t-112.5 -135v-43q1 -127 113 -127t112 127v43zM782 664v30q0 104 54.5 165t161 61t160.5 -60.5t54 -165.5v-30q0 -144 -98 -187q98 -46 98 -192v-68
q0 -104 -54 -165.5t-160.5 -61.5t-161 61.5t-54.5 165.5v68q0 148 99 192q-99 43 -99 187zM969 1434l-566 -1434h-96l565 1434h97zM174 1221v-47h-98v38q0 106 50.5 169t155.5 63t155 -62.5t50 -169.5v-22q0 -143 -106 -186q106 -43 106 -189v-70q0 -106 -50 -168.5
t-155 -62.5t-155.5 62.5t-50.5 168.5v62h98v-70q0 -129 106 -129t105 140v69q0 133 -113 133h-55v94h59q49 0 79 33t30 92v41q0 139 -106 140q-105 0 -105 -129z" />
    <glyph glyph-name="fiveeighths" unicode="&#x215d;" horiz-adv-x="1282" 
d="M995.5 426q-112.5 0 -112.5 -129v-78q0 -135 112.5 -135t112.5 135v78q0 129 -112.5 129zM1108 690q0 135 -112.5 135t-112.5 -135v-43q1 -127 113 -127t112 127v43zM780 664v30q0 104 55.5 165t160.5 61t160.5 -60.5t55.5 -165.5v-30q0 -144 -100 -187q100 -47 100 -192
v-68q0 -104 -54 -165.5t-162 -61.5t-162 61.5t-54 165.5v68q0 148 99 192q-99 45 -99 187zM385 911q0 129 -104 129q-39 0 -68 -23.5t-33 -72.5v-20h-98l27 508h358v-95h-268l-13 -272q42 72 132 72q170 0 171 -217v-179q0 -104 -50 -167.5t-155 -63.5t-155.5 63.5
t-50.5 167.5v62h98v-68q0 -129 104.5 -129t104.5 129v176zM870 1434h97l-566 -1434h-96z" />
    <glyph glyph-name="seveneighths" unicode="&#x215e;" horiz-adv-x="1216" 
d="M929.5 426q-112.5 0 -112.5 -129v-78q0 -135 112.5 -135t112.5 135v78q0 129 -112.5 129zM1042 690q0 135 -112.5 135t-112.5 -135v-43q1 -127 113 -127t112 127v43zM715 664v30q0 104 54 165t160.5 61t162 -60.5t55.5 -165.5v-30q0 -144 -100 -187q100 -47 100 -192v-68
q0 -104 -54.5 -165.5t-161.5 -61.5t-161.5 61.5t-54.5 165.5v68q0 148 98 192q-98 43 -98 187zM295 0h-96l565 1434h96zM76 1339v95h413v-91l-235 -819h-102l231 815h-307z" />
    <glyph glyph-name="minus" unicode="&#x2212;" horiz-adv-x="802" 
d="M741 774v-115h-680v115h680z" />
    <glyph glyph-name="infinity" unicode="&#x221e;" horiz-adv-x="1193" 
d="M813 879q-90 0 -124 -40t-34 -105.5t34 -103.5t124 -40h37q82 0 123 38t41 105.5t-41 106.5t-123 39h-37zM391 590q160 0 160 105.5t-39 144.5t-121 39h-37q-161 0 -161 -142.5t161 -146.5h37zM829 989h27q127 0 198.5 -64.5t71.5 -191.5t-71.5 -190.5t-198.5 -63.5h-27
q-172 0 -223 113q-52 -113 -229 -113h-25q-127 0 -199.5 63.5t-72.5 190.5t72.5 191.5t199.5 64.5h25q179 0 229 -115q51 115 223 115z" />
    <glyph glyph-name="approxequal" unicode="&#x2248;" horiz-adv-x="811" 
d="M249 672q50 0 91 -19.5t79 -43t74.5 -43t73.5 -19.5t63.5 28.5t65.5 83.5l78 -75q-57 -88 -105.5 -123t-98.5 -35t-89 19.5t-76.5 43t-74.5 43t-76 19.5t-68.5 -27.5t-70.5 -85.5l-78 72q106 162 212 162zM254 885q-39 0 -68.5 -27t-70.5 -86l-78 72q146 222 245 172.5
t137 -73t74.5 -43t73.5 -18.5t63.5 28.5t65.5 84.5l78 -77q-57 -88 -105.5 -122t-98.5 -35t-89 18.5t-76.5 43t-74.5 43t-76 19.5z" />
    <glyph glyph-name="commaaccentcomb" unicode="&#xf6c3;" horiz-adv-x="0" 
d="M145 -248v180h136v-165l-72 -129h-59l47 114h-52z" />
    <glyph glyph-name="zero.alt" horiz-adv-x="796" 
d="M567 1096q0 209 -170 209q-86 0 -128 -55.5t-42 -153.5v-758q0 -207 170 -207t170 207v758zM70 1087q0 166 80.5 263.5t246.5 97.5t248 -97.5t82 -263.5v-739q0 -166 -82 -264t-248 -98t-246.5 98t-80.5 264v739z" />
    <glyph glyph-name="one.alt" horiz-adv-x="522" 
d="M410 1434v-1434h-158v1174q-89 -54 -199 -62v131q151 5 191.5 79.5t54.5 111.5h111z" />
    <glyph glyph-name="two.alt" horiz-adv-x="753" 
d="M381 1305q-168 0 -168 -211v-127h-150v116q0 166 78 265.5t245 99.5t244 -98.5t77 -273.5q0 -235 -196 -440.5t-244 -298.5t-48 -177v-15h473v-145h-629v123q0 195 90.5 315.5t153 185t152.5 177t90 278.5q0 226 -168 226z" />
    <glyph glyph-name="three.alt" horiz-adv-x="772" 
d="M215 1096v-74h-152v65q0 166 79 263.5t245 97.5t244 -97.5t78 -263.5v-36q0 -230 -174 -295q174 -66 174 -297v-111q0 -164 -79 -263t-244 -99t-244 98t-79 264v98h152v-108q0 -207 168 -207t168 221v111q0 207 -182 213h-86v143h96q80 4 126 53.5t46 143.5v65
q0 223 -168 224q-168 0 -168 -209z" />
    <glyph glyph-name="four.alt" horiz-adv-x="819" 
d="M506 434v694l-313 -694h313zM664 289v-289h-158v289h-461v145l444 1000h175v-1000h114v-145h-114z" />
    <glyph glyph-name="five.alt" horiz-adv-x="774" 
d="M383 823q-140 0 -160 -153v-33h-151l41 797h565v-144h-424l-23 -440q70 119 211 119t205 -93.5t64 -246.5v-281q0 -166 -79 -264t-244 -98t-243.5 99t-78.5 263v96h149v-106q0 -207 168 -207t168 207v278q0 207 -168 207z" />
    <glyph glyph-name="six.alt" horiz-adv-x="790" 
d="M567 553q0 207 -170 207t-170 -207v-215q0 -207 170 -207t170 207v215zM461 905q137 0 201.5 -92t64.5 -248v-217q0 -166 -82 -264t-248 -98t-246.5 98t-80.5 264v731q0 170 78.5 269.5t247.5 99.5t248 -96.5t79 -261.5v-27h-152v37q0 205 -168 205q-176 0 -176 -232
v-321q64 153 234 153z" />
    <glyph glyph-name="seven.alt" horiz-adv-x="714" 
d="M41 1290v144h633v-140l-352 -1294h-160l354 1290h-475z" />
    <glyph glyph-name="eight.alt" horiz-adv-x="804" 
d="M223 348q0 -217 179 -217t180 217v121q-1 207 -180 207t-179 -207v-121zM582 1090q0 215 -181 215q-84 0 -131 -52.5t-47 -162.5v-70q0 -201 179.5 -201t179.5 201v70zM63 1049v45q0 166 86 260t253 94t253 -94t86 -260v-45q0 -234 -163 -295q163 -63 163 -303v-107
q0 -166 -85 -262t-254 -96t-254 96t-85 262v107q0 235 166 303q-166 68 -166 295z" />
    <glyph glyph-name="nine.alt" horiz-adv-x="790" 
d="M563 1096q0 207 -170 207t-170 -207v-215q0 -207 170 -207t170 207v215zM217 336q0 -205 170 -205q176 0 176 229v322q-63 -152 -233 -152q-137 0 -202 91.5t-65 246.5v219q0 166 82 263.5t248 97.5t247 -97.5t81 -263.5v-731q0 -170 -79 -270t-248 -100t-247.5 97
t-78.5 263v27h149v-37z" />
    <glyph glyph-name="Edotaaccent" horiz-adv-x="829" 
 />
    <glyph glyph-name="edotaaccent" horiz-adv-x="829" 
 />
    <glyph glyph-name="lcute" horiz-adv-x="829" 
 />
    </font>
</defs>
</svg>
